Гранд-отель / Grandhotel (Давид Ондричек / David Ondricek) [2006, Чехия, комедия, HDTVRip 720p] VO (Kass) + Sub Eng + Original Cze


 

[Цитировать]

Грандотель / Grandhotel
Страна: Чехия
Студия: Lucky Man Films
Жанр: комедия
Год выпуска: 2006
Продолжительность: 01:32:26
Перевод: Одноголосый закадровый (женский) (Kass)
Cубтитры: английские
Оригинальная аудиодорожка: чешский
Режиссер: Давид Ондричек / David Ondricek
В ролях: Марек Тацлик / Marek Taclík, Клара Иссова / Klára Issová, Ярослав Плесл / Jaroslav Plesl, Яромир Дулава / Jaromír Dulava, Ладислав Мрквичка / Ladislav Mrkvicka, Дита Забранска / Dita Zábranská, Вера Гавелкова / Vera Havelková и др.
Описание: Еще одна великолепная комедия Давида Ондричка.
Кому-то фильм покажется скучным: здесь нет ни спецэффектов, ни красот природы, ни даже рекламы шикарного отеля. Зато есть хорошая актерская игра и полным-полно подлинного чешского юмора (довольно-таки черного юмора, хорошо знакомого каждому, кто долго жил в Чехии).
Четыре жизни, о которых толком и сказать нечего. У интроверта Флейшмана это сплошной "прогноз погоды", у крутого Патки - гонка за мелкой прибылью. У бестолковой Зузки это мечта хоть о каком-то мужике, у симпатичной Ильи - о ребенке, по сути все равно от кого. Мелкая нелепица тасует жизни, как карты, и в конце концов все оборачивается к лучшему. Яромир Дулава роскошен в роли сексуально озабоченного управляющего, Ладислав Мрквичка - в роли старикана "с ногой на старту, кровью на спирту" и прахом друга в коробке из-под кофе.
Это фильм о "людях в поднебесье", о "людях в облаках", как в переносном смысле, так и в буквальном.

Доп. информация:


спасибо edus67 за наводку
спасибо Dr.Crane за русскую дорожку
Тип релиза: HDTVRip 720p (thnx DON) | sample
Контейнер: MKV
Видео: H.264/AVC, 1280x534, 2.40:1, 25.00fps, 5858kbps
Аудио: Russian, DD 5.1, 48 kHz, 448kbps
Аудио 2: Czech, DD 5.1, 48 kHz, 448kbps
Формат субтитров: softsub (SRT)

MI

Complete name                            : M:\=VIDEO=\Grandhotel.2006.720p.HDTV.x264.rus.cze.mkv
Format                                   : Matroska
Format version                           : Version 4 / Version 2
File size                                : 4.45 GiB
Duration                                 : 1h 32mn
Overall bit rate                         : 6 891 Kbps
Movie name                               : Grandhotel (2006)
Encoded date                             : UTC 2014-06-24 12:07:01
Writing application                      : mkvmerge v7.0.0 ('Where We Going') 32bit built on Jun  9 2014 15:08:34
Writing library                          : libebml v1.3.0 + libmatroska v1.4.1
Video
ID                                       : 1
Format                                   : AVC
Format/Info                              : Advanced Video Codec
Format profile                           : High@L4.1
Format settings, CABAC                   : Yes
Format settings, ReFrames                : 12 frames
Codec ID                                 : V_MPEG4/ISO/AVC
Duration                                 : 1h 32mn
Bit rate                                 : 5 858 Kbps
Width                                    : 1 280 pixels
Height                                   : 534 pixels
Display aspect ratio                     : 2.40:1
Frame rate mode                          : Constant
Frame rate                               : 25.000 fps
Color space                              : YUV
Chroma subsampling                       : 4:2:0
Bit depth                                : 8 bits
Scan type                                : Progressive
Bits/(Pixel*Frame)                       : 0.343
Stream size                              : 3.78 GiB (85%)
Writing library                          : x264 core 142 r2431+42 c69a006 tMod [8-bit@all X86_64]
Encoding settings                        : cabac=1 / ref=12 / deblock=1:-3:-3 / analyse=0x3:0x133 / me=tesa / subme=10 / psy=1 / fade_compensate=0.00 / psy_rd=1.05:0.00 / mixed_ref=1 / me_range=24 / chroma_me=1 / trellis=2 / 8x8dct=1 / cqm=0 / deadzone=21,11 / fast_pskip=0 / chroma_qp_offset=-2 / threads=12 / lookahead_threads=2 / sliced_threads=0 / nr=0 / decimate=0 / interlaced=0 / bluray_compat=0 / constrained_intra=0 / fgo=0 / bframes=8 / b_pyramid=2 / b_adapt=2 / b_bias=0 / direct=3 / weightb=1 / open_gop=0 / weightp=2 / keyint=250 / keyint_min=25 / scenecut=40 / intra_refresh=0 / rc_lookahead=60 / rc=crf / mbtree=0 / crf=16.0000 / qcomp=0.65 / qpmin=0:0:0 / qpmax=69:69:69 / qpstep=4 / vbv_maxrate=62500 / vbv_bufsize=78125 / crf_max=0.0 / nal_hrd=none / filler=0 / ip_ratio=1.40 / pb_ratio=1.30 / aq=4:0.80 / aq-sensitivity=10.00 / aq-factor=1.00:1.00:1.00 / aq2=0 / aq3=0
Language                                 : Czech
Default                                  : Yes
Forced                                   : No
Audio #1
ID                                       : 2
Format                                   : AC-3
Format/Info                              : Audio Coding 3
Mode extension                           : CM (complete main)
Format settings, Endianness              : Big
Codec ID                                 : A_AC3
Duration                                 : 1h 32mn
Bit rate mode                            : Constant
Bit rate                                 : 448 Kbps
Channel(s)                               : 6 channels
Channel positions                        : Front: L C R, Side: L R, LFE
Sampling rate                            : 48.0 KHz
Bit depth                                : 16 bits
Compression mode                         : Lossy
Stream size                              : 296 MiB (7%)
Title                                    : VO [Kass]
Language                                 : Russian
Default                                  : Yes
Forced                                   : No
Audio #2
ID                                       : 3
Format                                   : AC-3
Format/Info                              : Audio Coding 3
Mode extension                           : CM (complete main)
Format settings, Endianness              : Big
Codec ID                                 : A_AC3
Duration                                 : 1h 32mn
Bit rate mode                            : Constant
Bit rate                                 : 448 Kbps
Channel(s)                               : 6 channels
Channel positions                        : Front: L C R, Side: L R, LFE
Sampling rate                            : 48.0 KHz
Bit depth                                : 16 bits
Compression mode                         : Lossy
Stream size                              : 296 MiB (7%)
Language                                 : Czech
Default                                  : No
Forced                                   : No
Text
ID                                       : 4
Format                                   : UTF-8
Codec ID                                 : S_TEXT/UTF8
Codec ID/Info                            : UTF-8 Plain Text
Language                                 : English
Default                                  : No
Forced                                   : No

Скриншоты




Показать сообщения:    

Текущее время: 08-Дек 09:02

Часовой пояс: UTC + 3


Вы не можете начинать темы
Вы не можете отвечать на сообщения
Вы не можете редактировать свои сообщения
Вы не можете удалять свои сообщения
Вы не можете голосовать в опросах
Вы не можете прикреплять файлы к сообщениям
Вы не можете скачивать файлы