Как поэт утратил иллюзии / Как поэты теряют иллюзии / Jak basnici prichazeji o iluze (Душан Клейн / Dušan Klein) [1984, Чехословакия, комедия, мелодрама, HDTVRip 720p] AVO (Кузнецов) + Original Cze


 

[Цитировать]

Как поэт утратил иллюзии / Как поэты теряют иллюзии / Jak basnici prichazeji o iluze
Страна: Чехословакия
Жанр: комедия, мелодрама
Год выпуска: 1984
Продолжительность: 01:37:36
Перевод: Авторский одноголосый закадровый (Сергей Кузнецов)
Cубтитры: нет
Оригинальная аудиодорожка: чешский
Режиссер: Душан Клейн / Dušan Klein
В ролях: Павел Кршиж / Pavel Kříž, Давид Матасек / David Matásek, Адриана Тарабкова / Adriana Tarábková, Йосеф Диэлле / Joseph Dielle, Вацлав Свобода / Václav Svoboda, Карел Роден / Karel Roden, Мила Мысликова / Míla Myslíková, Эва Еничкова / Eva Jeníčková, Зденек Сверак / Zdeněk Svěrák, Иржи Штепничка / Jiří Štěpnička
Описание: Про студента медицинского ВУЗа, который познаёт первую любовь, власть денег, цену настоящей дружбе и как сложно стать взрослым…
Доп.инфрмация:


Тип релиза: HDTVRip 720p | sample
Контейнер: MKV
Видео: H.264/AVC, 984x720, 4:3, 25.00fps, 4945kbps
Аудио: Russian, DD 2.0, 48 kHz, 192kbps
Аудио 2: Czech, DD 2.0, 48 kHz, 192kbps

MI

Complete name                            : M:\=VIDEO=\Jak.basnici.prichazeji.o.iluze.1984.720p.HDTVRip.rus.cze.mkv
Format                                   : Matroska
Format version                           : Version 4 / Version 2
File size                                : 3.71 GiB
Duration                                 : 1h 37mn
Overall bit rate                         : 5 437 Kbps
Movie name                               : Jak basnici prichazeji o iluze (1984)
Encoded date                             : UTC 2014-06-22 07:23:02
Writing application                      : mkvmerge v7.0.0 ('Where We Going') 32bit built on Jun  9 2014 15:08:34
Writing library                          : libebml v1.3.0 + libmatroska v1.4.1
Video
ID                                       : 1
Format                                   : AVC
Format/Info                              : Advanced Video Codec
Format profile                           : High@L3.2
Format settings, CABAC                   : Yes
Format settings, ReFrames                : 7 frames
Codec ID                                 : V_MPEG4/ISO/AVC
Duration                                 : 1h 37mn
Bit rate                                 : 4 945 Kbps
Width                                    : 984 pixels
Height                                   : 720 pixels
Display aspect ratio                     : 4:3
Frame rate mode                          : Constant
Frame rate                               : 25.000 fps
Color space                              : YUV
Chroma subsampling                       : 4:2:0
Bit depth                                : 8 bits
Scan type                                : Progressive
Bits/(Pixel*Frame)                       : 0.279
Stream size                              : 3.37 GiB (91%)
Writing library                          : x264 core 142 r2431 ac76440
Encoding settings                        : cabac=1 / ref=7 / deblock=1:-3:-3 / analyse=0x3:0x133 / me=umh / subme=10 / psy=1 / psy_rd=1.00:0.00 / mixed_ref=1 / me_range=24 / chroma_me=1 / trellis=2 / 8x8dct=1 / cqm=0 / deadzone=21,11 / fast_pskip=1 / chroma_qp_offset=-2 / threads=6 / lookahead_threads=1 / sliced_threads=0 / nr=0 / decimate=0 / interlaced=0 / bluray_compat=0 / constrained_intra=0 / bframes=8 / b_pyramid=2 / b_adapt=2 / b_bias=0 / direct=3 / weightb=1 / open_gop=0 / weightp=2 / keyint=250 / keyint_min=25 / scenecut=40 / intra_refresh=0 / rc=crf / mbtree=0 / crf=16.5 / qcomp=0.60 / qpmin=0 / qpmax=69 / qpstep=4 / ip_ratio=1.40 / pb_ratio=1.30 / aq=1:0.90
Language                                 : Czech
Default                                  : Yes
Forced                                   : No
Audio #1
ID                                       : 2
Format                                   : AC-3
Format/Info                              : Audio Coding 3
Mode extension                           : CM (complete main)
Format settings, Endianness              : Big
Codec ID                                 : A_AC3
Duration                                 : 1h 37mn
Bit rate mode                            : Constant
Bit rate                                 : 192 Kbps
Channel(s)                               : 2 channels
Channel positions                        : Front: L R
Sampling rate                            : 48.0 KHz
Bit depth                                : 16 bits
Compression mode                         : Lossy
Stream size                              : 134 MiB (4%)
Title                                    : VO [Segey Kuznetsov]
Language                                 : Russian
Default                                  : Yes
Forced                                   : No
Audio #2
ID                                       : 3
Format                                   : AC-3
Format/Info                              : Audio Coding 3
Mode extension                           : CM (complete main)
Format settings, Endianness              : Big
Codec ID                                 : A_AC3
Duration                                 : 1h 37mn
Bit rate mode                            : Constant
Bit rate                                 : 192 Kbps
Channel(s)                               : 2 channels
Channel positions                        : Front: L R
Sampling rate                            : 48.0 KHz
Bit depth                                : 16 bits
Compression mode                         : Lossy
Stream size                              : 134 MiB (4%)
Language                                 : Czech
Default                                  : No
Forced                                   : No

Скриншоты




Показать сообщения:    

Текущее время: 02-Дек 21:12

Часовой пояс: UTC + 3


Вы не можете начинать темы
Вы не можете отвечать на сообщения
Вы не можете редактировать свои сообщения
Вы не можете удалять свои сообщения
Вы не можете голосовать в опросах
Вы не можете прикреплять файлы к сообщениям
Вы не можете скачивать файлы