Персеваль / Парсифаль Галльский / Perceval le Gallois (Эрик Ромер / Eric Rohmer) [1978 г., Франция, экранизация, драма, BDRip 720p] Original Fre + Sub (Rus, Eng)


 

[Цитировать]

Персеваль / Парсифаль Галльский / Perceval le Gallois- Год выпуска: 1978
Страна: Франция
Жанр: экранизация, драма
Продолжительность: 02:19:38
Перевод: Субтитры
Оригинальная аудиодорожка: Французская
Cубтитры: Русские (М. Васильев aka lakdhf), английские-Режиссер: Эрик Ромер / Eric Rohmer
В ролях: Фабрис Лукини, Андре Дюссолье, Соланж Буланжер, Катрин Шредер, Франциско Ороско, Ариель Домбаль, Дебора Нэйтан, Жан-Поль Ракодон, Паскаль Ожье-Описание:
Классик кинематографа Эрик Ромер обратился к литературному памятнику европейской цивилизации - роману «Персеваль, или Повесть о Граале» Кретьена де Труа, рассказывающему о юности доблестного рыцаря Персеваля (или Парсифаля, или Парцифаля, кому как нравится, все варианты широко используются в русском языке), его странствиях в поисках приключений, чтобы стяжать славу и занять достойное место за Круглым Столом при дворе Короля Артура.
Экранизируя это произведение, Ромер использовал необычную стилистику минимализма и подчеркнутой театральности. Таким образом, он возвращает нас к формату площадного театра и демонстрирует очаровательную наивность и непосредственность первоисточника.
Хрестоматийной стала фраза, произнесенная редактором журнала Cahiers du cinema.
“Просмотр фильма подобен разглядыванию старинного гобелена, который украшает стену древнего замка».
В истории кинематографа периодически случаются экранизации великих литературных произведений, про которые говорят «Режиссер фильма был равновелик автору книги». Так говорили про «Гамлета» Козинцева, про «Ромео и Джульетту» Дзефирелли. Так говорят про «Персеваля» Ромера.
Не всеми оцененный по достоинству в свое время, сейчас этот фильм считается одним из шедевров европейского авторского кинематографа.- | -Качество: BDRip 720p (mfcorrea)
Контейнер: MKV
Видео: x264, 988x720 (1.37:1), 24 fps, 6000 kbps
Аудио: Французский DTS 1.0, 48 kHz, 768 kbps, 16-bit
Формат субтитров: softsub (SRT)

Скриншоты



MI

General
Unique ID : 219509833911653406518777560109068728029 (0xA5240E648D26D4F08F6C09CDF7A636DD)
Complete name : Perceval.le.Gallois.1978.720p.BluRay.AVC-mfcorrea.mkv
Format : Matroska
Format version : Version 2
File size : 6.60 GiB
Duration : 2h 19mn
Overall bit rate : 6 771 Kbps
Movie name : Perceval le Gallois / Парсифаль Галльский (1978)
Encoded date : UTC 2014-06-18 19:39:24
Writing application : mkvmerge v6.1.0 ('Old Devil') built on Mar 2 2013 14:32:37
Writing library : libebml v1.3.0 + libmatroska v1.4.0
Attachment : Yes
Video
ID : 1
Format : AVC
Format/Info : Advanced Video Codec
Format profile : High@L3.1
Format settings, CABAC : Yes
Format settings, ReFrames : 6 frames
Codec ID : V_MPEG4/ISO/AVC
Duration : 2h 19mn
Bit rate : 6 000 Kbps
Width : 988 pixels
Height : 720 pixels
Display aspect ratio : 1.372
Frame rate mode : Constant
Frame rate : 24.000 fps
Color space : YUV
Chroma subsampling : 4:2:0
Bit depth : 8 bits
Scan type : Progressive
Bits/(Pixel*Frame) : 0.351
Stream size : 5.72 GiB (87%)
Title : Perceval.le.Gallois.1978.720p.BluRay.AVC-mfcorrea
Writing library : x264 core 130 r2273 b3065e6
Encoding settings : cabac=1 / ref=6 / deblock=1:-3:-3 / analyse=0x3:0x133 / me=umh / subme=9 / psy=1 / psy_rd=1.00:0.00 / mixed_ref=1 / me_range=20 / chroma_me=1 / trellis=2 / 8x8dct=1 / cqm=0 / deadzone=21,11 / fast_pskip=1 / chroma_qp_offset=-2 / threads=18 / lookahead_threads=2 / sliced_threads=0 / nr=0 / decimate=1 / interlaced=0 / bluray_compat=0 / constrained_intra=0 / bframes=5 / b_pyramid=2 / b_adapt=2 / b_bias=0 / direct=1 / weightb=1 / open_gop=0 / weightp=2 / keyint=240 / keyint_min=24 / scenecut=40 / intra_refresh=0 / rc_lookahead=40 / rc=2pass / mbtree=1 / bitrate=6000 / ratetol=1.0 / qcomp=0.60 / qpmin=0 / qpmax=69 / qpstep=4 / cplxblur=20.0 / qblur=0.5 / ip_ratio=1.40 / aq=1:1.00
Language : French
Default : Yes
Forced : No
Color primaries : BT.709
Transfer characteristics : BT.709
Matrix coefficients : BT.709
Audio
ID : 2
Format : DTS
Format/Info : Digital Theater Systems
Mode : 16
Format settings, Endianness : Big
Codec ID : A_DTS
Duration : 2h 19mn
Bit rate mode : Constant
Bit rate : 768 Kbps
Channel(s) : 1 channel
Channel positions : Front: C
Sampling rate : 48.0 KHz
Bit depth : 16 bits
Compression mode : Lossy
Stream size : 767 MiB (11%)
Language : French
Default : Yes
Forced : No
Text #1
ID : 3
Format : UTF-8
Codec ID : S_TEXT/UTF8
Codec ID/Info : UTF-8 Plain Text
Title : М. Васильев aka lakdhf
Language : Russian
Default : Yes
Forced : No
Text #2
ID : 4
Format : UTF-8
Codec ID : S_TEXT/UTF8
Codec ID/Info : UTF-8 Plain Text
Language : English
Default : No
Forced : No
Menu
00:00:00.000 : fr:01. Générique
00:04:36.833 : fr:02. Une vision
00:13:15.875 : fr:03. Le départ
00:20:17.750 : fr:04. Vengeance
00:26:51.458 : fr:05. La reine
00:31:20.125 : fr:06. Combat
00:42:04.708 : fr:07. L'ordre de la chevalerie
00:54:04.333 : fr:08. Belle
01:02:27.958 : fr:09. L'amour en récompense
01:10:22.708 : fr:10. Duel
01:20:30.792 : fr:11. Apparition
01:28:12.917 : fr:12. Malheur à toi
01:30:59.958 : fr:13. Le sang et la neige
01:46:08.667 : fr:14. Gauvain
01:55:04.167 : fr:15. En route pour Escavalon
02:02:01.958 : fr:16. Le château du Graal
02:18:14.042 : fr:17. Générique de fin



Показать сообщения:    

Текущее время: 04-Дек 17:17

Часовой пояс: UTC + 3


Вы не можете начинать темы
Вы не можете отвечать на сообщения
Вы не можете редактировать свои сообщения
Вы не можете удалять свои сообщения
Вы не можете голосовать в опросах
Вы не можете прикреплять файлы к сообщениям
Вы не можете скачивать файлы