Соломенный щит / Wara no Tate / Shield of Straw (Такаси Миике / Takashi Miike) [2013, Япония, триллер, боевик, драма, BDRip 1080p] VO (den904) + Sub Rus, Eng, Chi + Original Jap


 

[Цитировать]

Соломенный щит / Wara no Tate / Shield of Straw
Страна: Япония
Студия: Nippon Television Network, Oriental Light and Magic, Straw Shield Production Committee,Warner Bros.
Жанр: триллер, боевик, драма
Год выпуска: 2013
Продолжительность: 2:05:07
Перевод: Одноголосый закадровый den904
Cубтитры: русские, английские(srt), китайские (аss)
Оригинальная аудиодорожка: японский
Режиссер: Такаси Миике / Takashi Miike
В ролях: Нанако Мацусима, Тацуя Фудзивара, Такао Осава, Горо Кишитани, Масато Ибу, Кэнто Нагаяма, Цутому Ямадзаки, Кимико Ё, Хиротаро Хонда
Описание: Зверски убита семилетняя девочка. Подозреваемый известен всей Японии - на сайте его имени дед погибшей, один из богатейших и влиятельнейших людей страны, прямо объявляет его виновным и предлагает награду за его убийство - один миллиард иен. Мало того - по сто миллионов иен выплачивается за любую явную попытку убийства, повлекшую за собой арест совершившего ее. Вероятный убийца сам сдается полиции после того, как понимает, что на него объявлена тотальная охота. Нам изначально не оставляют сомнений, что убийца именно он, но на его стороне закон: презумпция невиновности и право досудебной защиты. Для транспортировки подозреваемого в столицу выделяют пять опытных и проверенных офицеров...
Релиз группы:
Сэмпл: http://multi-up.com/981021
Тип релиза: BDRip 1080p рип от - WiKi сохранены главы как в BluRay
Контейнер: MKV
Видео: MPEG-4 AVC, High@L4.1, 12216 Kbps, 1920 х 802 pixels, 23.976 fps
Аудио 1: AC3, 192 Kbps, 2 channels, Front: L R, 48.0 KHz, 16 bits Rus (den904)
Аудио 2: DTS, 1509 Kbps, 6 channels, Front: L C R, Side: L R, LFE, 48.0 KHz, 24 bits Jap

MediaInfo

General
Unique ID : 217096968002183834177482355496008885973 (0xA3535AEB2EDB7904A84D3104837526D5)
Complete name : D:\kirovtorrent\Shield.of.Straw.2013.1080p.BluRay.x264.DTS-WiKi.mkv
Format : Matroska
Format version : Version 4 / Version 2
File size : 12.2 GiB
Duration : 2h 5mn
Overall bit rate : 13.9 Mbps
Encoded date : UTC 2014-06-18 12:56:40
Writing application : mkvmerge v6.8.0 ('Theme for Great Cities') 64bit built on Mar 2 2014 21:34:26
Writing library : libebml v1.3.0 + libmatroska v1.4.1
Video
ID : 1
Format : AVC
Format/Info : Advanced Video Codec
Format profile : High@L4.1
Format settings, CABAC : Yes
Format settings, ReFrames : 5 frames
Codec ID : V_MPEG4/ISO/AVC
Duration : 2h 5mn
Bit rate : 12.2 Mbps
Width : 1 920 pixels
Height : 802 pixels
Display aspect ratio : 2.40:1
Frame rate mode : Constant
Frame rate : 23.976 fps
Color space : YUV
Chroma subsampling : 4:2:0
Bit depth : 8 bits
Scan type : Progressive
Bits/(Pixel*Frame) : 0.331
Stream size : 10.4 GiB (86%)
Title : RG Orient Extreme Films
Writing library : x264 core 136 r2348+704+51 d1baef6 tMod [8-bit@all X86_64]
Encoding settings : cabac=1 / ref=5 / deblock=1:-3:-3 / analyse=0x3:0x133 / me=umh / subme=11 / psy=1 / fade_compensate=0.00 / psy_rd=1.05:0.10 / mixed_ref=1 / me_range=64 / chroma_me=1 / trellis=2 / 8x8dct=1 / cqm=0 / deadzone=21,11 / fast_pskip=0 / chroma_qp_offset=-3 / threads=12 / lookahead_threads=2 / sliced_threads=0 / nr=0 / decimate=1 / interlaced=0 / bluray_compat=0 / constrained_intra=0 / fgo=0 / bframes=8 / b_pyramid=2 / b_adapt=2 / b_bias=0 / direct=3 / weightb=1 / open_gop=0 / weightp=2 / keyint=250 / keyint_min=23 / scenecut=40 / intra_refresh=0 / rc_lookahead=120 / rc=2pass / mbtree=1 / bitrate=12216 / ratetol=1.0 / qcomp=0.75 / qpmin=0:0:0 / qpmax=69:69:69 / qpstep=4 / cplxblur=20.0 / qblur=0.5 / vbv_maxrate=50000 / vbv_bufsize=50000 / nal_hrd=none / ip_ratio=1.40 / aq=1:0.80 / aq-sensitivity=10.00 / aq-factor=1.00:1.00:1.00 / aq2=0 / aq3=0
Language : English
Default : No
Forced : No
Matrix coefficients : BT.709
Audio #1
ID : 2
Format : AC-3
Format/Info : Audio Coding 3
Mode extension : CM (complete main)
Format settings, Endianness : Big
Codec ID : A_AC3
Duration : 2h 5mn
Bit rate mode : Constant
Bit rate : 192 Kbps
Channel(s) : 2 channels
Channel positions : Front: L R
Sampling rate : 48.0 KHz
Bit depth : 16 bits
Compression mode : Lossy
Stream size : 172 MiB (1%)
Title : VO (den904) AC3 2.0 @ 192k
Language : Russian
Default : Yes
Forced : No
Audio #2
ID : 3
Format : DTS
Format/Info : Digital Theater Systems
Mode : 16
Format settings, Endianness : Big
Codec ID : A_DTS
Duration : 2h 5mn
Bit rate mode : Constant
Bit rate : 1 509 Kbps
Channel(s) : 6 channels
Channel positions : Front: L C R, Side: L R, LFE
Sampling rate : 48.0 KHz
Bit depth : 24 bits
Compression mode : Lossy
Stream size : 1.32 GiB (11%)
Title : ORG DTS 5.1 @ 1509k
Language : Japanese
Default : No
Forced : No
Text #1
ID : 4
Format : UTF-8
Codec ID : S_TEXT/UTF8
Codec ID/Info : UTF-8 Plain Text
Title : Murasaki
Language : Russian
Default : No
Forced : No
Text #2
ID : 5
Format : UTF-8
Codec ID : S_TEXT/UTF8
Codec ID/Info : UTF-8 Plain Text
Language : English
Default : No
Forced : No
Text #3
ID : 6
Format : ASS
Codec ID : S_TEXT/ASS
Codec ID/Info : Advanced Sub Station Alpha
Compression mode : Lossless
Language : Chinese
Default : No
Forced : No
Menu
00:00:00.000 : en:00:00:00.000
00:03:36.466 : en:00:03:36.466
00:12:18.655 : en:00:12:18.655
00:18:23.060 : en:00:18:23.060
00:24:39.186 : en:00:24:39.186
00:32:08.093 : en:00:32:08.093
00:36:04.996 : en:00:36:04.996
00:49:15.160 : en:00:49:15.160
00:56:43.025 : en:00:56:43.025
01:06:04.294 : en:01:06:04.294
01:15:22.560 : en:01:15:22.560
01:26:26.765 : en:01:26:26.765
01:35:28.723 : en:01:35:28.723
01:46:30.384 : en:01:46:30.384
01:56:20.849 : en:01:56:20.849
02:00:15.875 : en:02:00:15.875

Скриншоты




Показать сообщения:    

Текущее время: 05-Дек 05:30

Часовой пояс: UTC + 3


Вы не можете начинать темы
Вы не можете отвечать на сообщения
Вы не можете редактировать свои сообщения
Вы не можете удалять свои сообщения
Вы не можете голосовать в опросах
Вы не можете прикреплять файлы к сообщениям
Вы не можете скачивать файлы