Любовники / Les Amants (Луи Малль / Louis Malle) [1958, Франция, драма, BDRip 1080p] MVO + AVO (Янкелевич) + Sub (Rus, Eng) + Original Fre


 

[Цитировать]

Любовники / Les Amants
Страна: Франция
Жанр: драма
Год выпуска: 1958
Продолжительность: 01:30:53
Перевод: Профессиональный (многоголосый закадровый) | Film Prestige
Перевод: Авторский (одноголосый закадровый) | Р.Янкелевич
Cубтитры: русские, английские
Оригинальная аудиодорожка: французский-Режиссер: Луи Малль / Louis Malle
В ролях: Жан-Марк Бори, Жанна Моро, Ален Кюни, Хосе Луис де Вильялонга, Мишель Жирардон, Жюдит Магр, Гастон Модо, Клод Мансар, Люсьенна Амон, Пьер Фраг, Жиб Гроссак, Жоржетта Лобр
Описание: "Модернизированную версию фривольной новеллы Виван-Денона, современника Вольтера и Наполеона, Луи Маль снял по контрасту со своим джазовым нуаром "Лифт на эшафот". Вместо Майлза Дэвиса — Брамс. Вместо нервического Парижа — вневременное поместье, где Жанна, скучая от рутины брака с издателем Анри и адюльтера с игроком в поло Раулем, бросается очертя голову в роман с первым встречным Бернаром..." М.Трофименков
IMDb || КиноПоиск-Тип релиза: BDRip 1080p [EA]
Контейнер: MKV
Видео: x264/AVC, 1916x820 at 23.976 fps, 16360 kbps
Аудио#1: Russian: 48 kHz, AC3, 2.0 ch, 192 kbps |Film Prestige
Аудио#2: Russian: 48 kHz, AC3, 2.0 ch, 192 kbps |Янкелевич
Аудио#3: French: 48 kHz, FLAC, 2.0 ch, 390 kbps
Формат субтитров: softsub (SRT)
Сэмпл

MediaInfo

General
Unique ID : 198837002579186365619323900916711335699 (0x95969D1D896B5253B5CDB9FD45ECA713)
Complete name : N:\Rutracker\Любовники\Les.amants.1958.1080p-EA. rutracker.mkv
Format : Matroska
Format version : Version 2
File size : 10.9 GiB
Duration : 1h 30mn
Overall bit rate mode : Variable
Overall bit rate : 17.1 Mbps
Movie name : Release for RuTracker
Writing application : mkvmerge v5.0.1 ('Es ist Sommer') built on Nov 6 2011 16:23:40
Writing library : libebml v1.2.2 + libmatroska v1.3.0
Video
ID : 1
Format : AVC
Format/Info : Advanced Video Codec
Format profile : High@L4.1
Format settings, CABAC : Yes
Format settings, ReFrames : 5 frames
Codec ID : V_MPEG4/ISO/AVC
Duration : 1h 30mn
Width : 1 916 pixels
Height : 820 pixels
Display aspect ratio : 2.35:1
Frame rate mode : Constant
Frame rate : 23.976 fps
Color space : YUV
Chroma subsampling : 4:2:0
Bit depth : 8 bits
Scan type : Progressive
Title : Les.amants.1958.1080p-EA. rutracker
Writing library : x264 core 142 r2431+42 c69a006 tMod [8-bit@all X86_64]
Encoding settings : cabac=1 / ref=5 / deblock=1:-3:-3 / analyse=0x3:0x113 / me=umh / subme=10 / psy=1 / fade_compensate=0.00 / psy_rd=1.10:0.00 / mixed_ref=1 / me_range=32 / chroma_me=0 / trellis=2 / 8x8dct=1 / cqm=0 / deadzone=21,11 / fast_pskip=0 / chroma_qp_offset=-2 / threads=12 / lookahead_threads=3 / sliced_threads=0 / nr=0 / decimate=0 / interlaced=0 / bluray_compat=0 / constrained_intra=0 / fgo=0 / bframes=10 / b_pyramid=2 / b_adapt=2 / b_bias=0 / direct=3 / weightb=1 / open_gop=0 / weightp=2 / keyint=240 / keyint_min=23 / scenecut=40 / intra_refresh=0 / rc_lookahead=50 / rc=crf / mbtree=0 / crf=19.2000 / qcomp=0.75 / qpmin=0:0:0 / qpmax=69:69:69 / qpstep=4 / vbv_maxrate=62500 / vbv_bufsize=78125 / crf_max=0.0 / nal_hrd=none / filler=0 / ip_ratio=1.20 / pb_ratio=1.10 / aq=1:0.55 / aq-sensitivity=10.00 / aq-factor=1.00:1.00:1.00 / aq2=1:0.45 / aq2-sensitivity=15.00 / aq2-factor=1.00:1.00:1.00 / aq3=0
Language : French
Default : Yes
Forced : No
Audio #1
ID : 2
Format : AC-3
Format/Info : Audio Coding 3
Mode extension : CM (complete main)
Format settings, Endianness : Big
Codec ID : A_AC3
Duration : 1h 30mn
Bit rate mode : Constant
Bit rate : 192 Kbps
Channel(s) : 2 channels
Channel positions : Front: L R
Sampling rate : 48.0 KHz
Bit depth : 16 bits
Compression mode : Lossy
Stream size : 125 MiB (1%)
Title : mvo
Language : Russian
Default : Yes
Forced : No
Audio #2
ID : 3
Format : AC-3
Format/Info : Audio Coding 3
Mode extension : CM (complete main)
Format settings, Endianness : Big
Codec ID : A_AC3
Duration : 1h 30mn
Bit rate mode : Constant
Bit rate : 192 Kbps
Channel(s) : 2 channels
Channel positions : Front: L R
Sampling rate : 48.0 KHz
Bit depth : 16 bits
Compression mode : Lossy
Stream size : 125 MiB (1%)
Title : avo
Language : Russian
Default : No
Forced : No
Audio #3
ID : 4
Format : FLAC
Format/Info : Free Lossless Audio Codec
Codec ID : A_FLAC
Duration : 1h 30mn
Bit rate mode : Variable
Channel(s) : 2 channels
Sampling rate : 48.0 KHz
Bit depth : 16 bits
Writing library : libFLAC 1.2.1 (UTC 2007-09-17)
Language : French
Default : No
Forced : No
Text #1
ID : 5
Format : UTF-8
Codec ID : S_TEXT/UTF8
Codec ID/Info : UTF-8 Plain Text
Language : Russian
Default : No
Forced : No
Text #2
ID : 6
Format : UTF-8
Codec ID : S_TEXT/UTF8
Codec ID/Info : UTF-8 Plain Text
Language : English
Default : No
Forced : No
Menu
00:00:00.000 : en:00:00:00.000
00:13:20.867 : en:00:13:20.867
00:20:39.805 : en:00:20:39.805
00:28:38.216 : en:00:28:38.216
00:39:46.884 : en:00:39:46.884
00:46:22.847 : en:00:46:22.847
00:55:57.788 : en:00:55:57.788
01:09:05.074 : en:01:09:05.074
01:16:59.114 : en:01:16:59.114



Показать сообщения:    

Текущее время: 09-Дек 10:46

Часовой пояс: UTC + 3


Вы не можете начинать темы
Вы не можете отвечать на сообщения
Вы не можете редактировать свои сообщения
Вы не можете удалять свои сообщения
Вы не можете голосовать в опросах
Вы не можете прикреплять файлы к сообщениям
Вы не можете скачивать файлы