Шепни мне / Septej / Whisper / Septes (Давид Ондричек / David Ondricek) [1996, Чехия, мелодрама, HDTVRip 720p] VO + Sub Eng + Original Cze


 

[Цитировать]

Шепни мне / Septej / Whisper / Septes
Страна: Чехия
Жанр: мелодрама
Год выпуска: 1996
Продолжительность: 01:24:01
Перевод: Одноголосый закадровый (женский)
Cубтитры: английские
Оригинальная аудиодорожка: чешский
Режиссер: Давид Ондричек / David Ondricek
В ролях: Татьяна Вильгельмова, Ян П.Мухов, Ян Чехтицки, Мартин Мышичка, Katerina Winterová, Петра Шпалкова, Зденек Дэвид, Зденек Сухи, Борживой Навратил, Вацлав Мареш
Описание: Очень точная и достоверная драма снята в форме простой, обычной истории без всякого пафоса, но рассказывает о целом поколении. Конечно, она не оставит в кино следа, сопоставимого с "Полуночным ковбоем", но в фильме нет никакого провинциализма. Это по-настоящему хорошая, высокопрофессиональная европейская работа.
Доп.информация:


Тип релиза: HDTVRip 720p (thnx DON) | sample
Контейнер: MKV
Видео: H.264/AVC, 1192x720, 1.656:1, 25.00fps, 7416kbps
Аудио: Russian, DD 2.0, 48 kHz, 192kbps
Аудио 2: Czech, DD 2.0, 48 kHz, 224kbps
Формат субтитров: softsub (SRT)

MI

Complete name                            : Septej.1996.720p.HDTV.x264.Rus.Cze.mkv
Format                                   : Matroska
Format version                           : Version 4 / Version 2
File size                                : 4.69 GiB
Duration                                 : 1h 24mn
Overall bit rate                         : 7 991 Kbps
Movie name                               : Šeptej (1996)
Encoded date                             : UTC 2014-06-11 07:39:11
Writing application                      : mkvmerge v7.0.0 ('Where We Going') 32bit built on Jun  9 2014 15:08:34
Writing library                          : libebml v1.3.0 + libmatroska v1.4.1
Video
ID                                       : 1
Format                                   : AVC
Format/Info                              : Advanced Video Codec
Format profile                           : High@L4.1
Format settings, CABAC                   : Yes
Format settings, ReFrames                : 9 frames
Codec ID                                 : V_MPEG4/ISO/AVC
Duration                                 : 1h 24mn
Bit rate                                 : 7 416 Kbps
Width                                    : 1 192 pixels
Height                                   : 720 pixels
Display aspect ratio                     : 1.656
Frame rate mode                          : Constant
Frame rate                               : 25.000 fps
Color space                              : YUV
Chroma subsampling                       : 4:2:0
Bit depth                                : 8 bits
Scan type                                : Progressive
Bits/(Pixel*Frame)                       : 0.346
Stream size                              : 4.35 GiB (93%)
Writing library                          : x264 core 142 r2431+42 c69a006 tMod [8-bit@all X86_64]
Encoding settings                        : cabac=1 / ref=9 / deblock=1:-3:-3 / analyse=0x3:0x133 / me=tesa / subme=10 / psy=1 / fade_compensate=0.00 / psy_rd=1.05:0.00 / mixed_ref=1 / me_range=24 / chroma_me=1 / trellis=2 / 8x8dct=1 / cqm=0 / deadzone=21,11 / fast_pskip=0 / chroma_qp_offset=-2 / threads=12 / lookahead_threads=2 / sliced_threads=0 / nr=0 / decimate=0 / interlaced=0 / bluray_compat=0 / constrained_intra=0 / fgo=0 / bframes=8 / b_pyramid=2 / b_adapt=2 / b_bias=0 / direct=3 / weightb=1 / open_gop=0 / weightp=2 / keyint=250 / keyint_min=25 / scenecut=40 / intra_refresh=0 / rc_lookahead=60 / rc=crf / mbtree=0 / crf=16.5000 / qcomp=0.65 / qpmin=0:0:0 / qpmax=69:69:69 / qpstep=4 / vbv_maxrate=62500 / vbv_bufsize=78125 / crf_max=0.0 / nal_hrd=none / filler=0 / ip_ratio=1.30 / pb_ratio=1.20 / aq=4:0.70 / aq-sensitivity=10.00 / aq-factor=1.00:1.00:1.00 / aq2=0 / aq3=0
Language                                 : Czech
Default                                  : Yes
Forced                                   : No
Audio #1
ID                                       : 2
Format                                   : AC-3
Format/Info                              : Audio Coding 3
Mode extension                           : CM (complete main)
Format settings, Endianness              : Big
Codec ID                                 : A_AC3
Duration                                 : 1h 24mn
Bit rate mode                            : Constant
Bit rate                                 : 192 Kbps
Channel(s)                               : 2 channels
Channel positions                        : Front: L R
Sampling rate                            : 48.0 KHz
Bit depth                                : 16 bits
Compression mode                         : Lossy
Stream size                              : 115 MiB (2%)
Title                                    : VO
Language                                 : Russian
Default                                  : Yes
Forced                                   : No
Audio #2
ID                                       : 3
Format                                   : AC-3
Format/Info                              : Audio Coding 3
Mode extension                           : CM (complete main)
Format settings, Endianness              : Big
Codec ID                                 : A_AC3
Duration                                 : 1h 24mn
Bit rate mode                            : Constant
Bit rate                                 : 224 Kbps
Channel(s)                               : 2 channels
Channel positions                        : Front: L R
Sampling rate                            : 48.0 KHz
Bit depth                                : 16 bits
Compression mode                         : Lossy
Stream size                              : 135 MiB (3%)
Language                                 : Czech
Default                                  : No
Forced                                   : No
Text
ID                                       : 4
Format                                   : UTF-8
Codec ID                                 : S_TEXT/UTF8
Codec ID/Info                            : UTF-8 Plain Text
Language                                 : English
Default                                  : No
Forced                                   : No
Menu
00:00:00.000                             : cs:Stop
00:05:31.220                             : cs:Kapučíno
00:12:14.653                             : cs:Vesmír
00:17:58.719                             : cs:Laura
00:25:05.553                             : cs:"Umělec"
00:30:17.120                             : cs:Kluci
00:40:03.854                             : cs:Kytka
00:47:27.154                             : cs:Zamrzlá
00:56:34.021                             : cs:Klub
01:05:57.354                             : cs:Filip
01:13:05.487                             : cs:Privilegovaný
01:20:06.374                             : cs:Závěrečné titulky



Показать сообщения:    

Текущее время: 05-Дек 23:40

Часовой пояс: UTC + 3


Вы не можете начинать темы
Вы не можете отвечать на сообщения
Вы не можете редактировать свои сообщения
Вы не можете удалять свои сообщения
Вы не можете голосовать в опросах
Вы не можете прикреплять файлы к сообщениям
Вы не можете скачивать файлы