Роза Кавасаки / Kawasakiho ruze / Kawasaki's Rose (Ян Гржебейк / Jan Hrebejk) [2009, Чехия, драма, HDTVRip 720p] VO (datynet) + Sub Rus, Cze + Original Cze


 

[Цитировать]

Роза Кавасаки / Kawasakiho ruze / Kawasaki's Rose
Страна: Чехия
Студия: In Film Praha, Infinity Prague
Жанр: драма
Год выпуска: 2009
Продолжительность: 01:29:28
Перевод: Одноголосый закадровый (datynet)
Cубтитры:Russian, Czech, Serbian, Polish
Оригинальная аудиодорожка: чешский
Режиссер: Ян Гржебейк / Jan Hrebejk
В ролях: Ленка Власакова, Даниэла Коларжова, Мартин Губа, Милан Микулчик, Антонин Кратохвил, Петра Гржебичкова, Ладислав Худик, Мартин Шульц, Исао Онода, Ладислав Смочек, Владимир Кулгавый
Описание: 2009 год. Выдающийся ученый и бывший диссидент Павел Йосек должен получить государственную награду за мужество. Но во время съемок телевизионного документального фильма о его жизни всплывают нелицеприятные факты из прошлого Йосека. В начале 70-х годов под давлением тайной полиции он сыграл определенную роль в дискредитации друга, которого впоследствии вынудили покинуть страну.
Фильм рассказывает о событиях более, чем тридцатилетней давности, без единого флэшбэка и проливает свет на методы, которые использовала тайная полиция для дискредитации неугодных системе лиц.

Доп.информация:


Тип релиза: HDTVRip 720p (thnx DON) | сэмпл
Контейнер: MKV
Видео: H.264/AVC, 1280x532, 2.40:1, 25.00fps, 4500kbps
Аудио: Russian, DD 5.0, 48 kHz, 448kbps
Аудио 2: Czech, DD 5.1, 48 kHz, 448kbps
Формат субтитров: softsub (SRT)

MI

Complete name                            : Kawasakiho.ruze.2009.720p.HDTV.x264.Rus.Cze.mkv
Format                                   : Matroska
Format version                           : Version 4 / Version 2
File size                                : 3.57 GiB
Duration                                 : 1h 34mn
Overall bit rate                         : 5 396 Kbps
Movie name                               : Kawasakiho růže (2009)
Encoded date                             : UTC 2014-06-10 12:17:35
Writing application                      : mkvmerge v7.0.0 ('Where We Going') 32bit built on Jun  9 2014 15:08:34
Writing library                          : libebml v1.3.0 + libmatroska v1.4.1
Video
ID                                       : 1
Format                                   : AVC
Format/Info                              : Advanced Video Codec
Format profile                           : High@L4.1
Format settings, CABAC                   : Yes
Format settings, ReFrames                : 12 frames
Codec ID                                 : V_MPEG4/ISO/AVC
Duration                                 : 1h 34mn
Bit rate                                 : 4 500 Kbps
Width                                    : 1 280 pixels
Height                                   : 532 pixels
Display aspect ratio                     : 2.40:1
Frame rate mode                          : Constant
Frame rate                               : 25.000 fps
Color space                              : YUV
Chroma subsampling                       : 4:2:0
Bit depth                                : 8 bits
Scan type                                : Progressive
Bits/(Pixel*Frame)                       : 0.264
Stream size                              : 2.91 GiB (81%)
Writing library                          : x264 core 140 r2377 1ca7bb9
Encoding settings                        : cabac=1 / ref=12 / deblock=1:-3:-3 / analyse=0x3:0x133 / me=tesa / subme=10 / psy=1 / psy_rd=1.05:0.00 / mixed_ref=1 / me_range=24 / chroma_me=1 / trellis=2 / 8x8dct=1 / cqm=0 / deadzone=21,11 / fast_pskip=0 / chroma_qp_offset=-2 / threads=12 / lookahead_threads=2 / sliced_threads=0 / nr=0 / decimate=0 / interlaced=0 / bluray_compat=0 / constrained_intra=0 / bframes=8 / b_pyramid=2 / b_adapt=2 / b_bias=0 / direct=3 / weightb=1 / open_gop=0 / weightp=2 / keyint=250 / keyint_min=25 / scenecut=40 / intra_refresh=0 / rc_lookahead=60 / rc=2pass / mbtree=0 / bitrate=4500 / ratetol=1.0 / qcomp=0.70 / qpmin=0 / qpmax=69 / qpstep=4 / cplxblur=20.0 / qblur=0.5 / vbv_maxrate=62500 / vbv_bufsize=78125 / nal_hrd=none / filler=0 / ip_ratio=1.40 / pb_ratio=1.30 / aq=1:0.80
Language                                 : Czech
Default                                  : Yes
Forced                                   : No
Audio #1
ID                                       : 2
Format                                   : AC-3
Format/Info                              : Audio Coding 3
Mode extension                           : CM (complete main)
Format settings, Endianness              : Big
Codec ID                                 : A_AC3
Duration                                 : 1h 34mn
Bit rate mode                            : Constant
Bit rate                                 : 448 Kbps
Channel(s)                               : 5 channels
Channel positions                        : Front: L C R, Side: L R
Sampling rate                            : 48.0 KHz
Bit depth                                : 16 bits
Compression mode                         : Lossy
Stream size                              : 304 MiB (8%)
Title                                    : VO [datynet]
Language                                 : Russian
Default                                  : Yes
Forced                                   : No
Audio #2
ID                                       : 3
Format                                   : AC-3
Format/Info                              : Audio Coding 3
Mode extension                           : CM (complete main)
Format settings, Endianness              : Big
Codec ID                                 : A_AC3
Duration                                 : 1h 34mn
Bit rate mode                            : Constant
Bit rate                                 : 448 Kbps
Channel(s)                               : 6 channels
Channel positions                        : Front: L C R, Side: L R, LFE
Sampling rate                            : 48.0 KHz
Bit depth                                : 16 bits
Compression mode                         : Lossy
Stream size                              : 304 MiB (8%)
Language                                 : Czech
Default                                  : No
Forced                                   : No
Text #1
ID                                       : 4
Format                                   : UTF-8
Codec ID                                 : S_TEXT/UTF8
Codec ID/Info                            : UTF-8 Plain Text
Title                                    : [MMManja]
Language                                 : Russian
Default                                  : No
Forced                                   : No
Text #2
ID                                       : 5
Format                                   : UTF-8
Codec ID                                 : S_TEXT/UTF8
Codec ID/Info                            : UTF-8 Plain Text
Language                                 : Czech
Default                                  : No
Forced                                   : No
Text #3
ID                                       : 6
Format                                   : UTF-8
Codec ID                                 : S_TEXT/UTF8
Codec ID/Info                            : UTF-8 Plain Text
Language                                 : Polish
Default                                  : No
Forced                                   : No
Text #4
ID                                       : 7
Format                                   : UTF-8
Codec ID                                 : S_TEXT/UTF8
Codec ID/Info                            : UTF-8 Plain Text
Language                                 : Serbian
Default                                  : No
Forced                                   : No

Скриншоты




Показать сообщения:    

Текущее время: 10-Дек 13:53

Часовой пояс: UTC + 3


Вы не можете начинать темы
Вы не можете отвечать на сообщения
Вы не можете редактировать свои сообщения
Вы не можете удалять свои сообщения
Вы не можете голосовать в опросах
Вы не можете прикреплять файлы к сообщениям
Вы не можете скачивать файлы