Пуговичники / Knoflikari / Buttoners (Петр Зеленка / Petr Zelenka) [1997, Чехия, комедия, HDTVRip 720p] VO + Sub Eng + Original Cze


 

[Цитировать]

Пуговичники / Knoflikari / Buttoners
Страна: Чехия
Жанр: комедия
Год выпуска: 1997
Продолжительность: 01:43:02
Перевод: Одноголосый закадровый
Cубтитры: английские
Оригинальная аудиодорожка: чешский
Режиссер: Петр Зеленка / Petr Zelenka
В ролях: Ян Хауберт, Сейзуке Цухакара, Светлана Свободова, Павел Зайчек, Мотохиро Хосойа
Описание: Как говорится, у каждого свои странности и чужая душа — потемки. Кто-то предпочитает заниматься любовью в такси на скорости 60 км в час, кто-то любит плевать в след уходящему поезду, а кто-то просто обожает выкусывать пуговицы из диванов весьма своеобразным и даже неприличным способом. Созерцание всех этих эксцентриков, однако, настраивает нас к концу фильма на философский лад. Странности бытия, одновременно смешные и грустные то пошлые, то страшные, выстраиваются в мозаику и создают целостную картину.
Доп.информация:


спасибо marinka_l за дорожку
Тип релиза: HDTVRip 720p (thnx DON) | сэмпл
Контейнер: MKV
Видео: H.264/AVC, 1196x720, 1.66:9, 25.00fps, 5142kbps
Аудио: Russian, DD 2.0, 48 kHz, 192kbps
Аудио 2: Czech, DD 2.0, 48 kHz, 448kbps
Формат субтитров: softsub (SRT)

MI

Complete name                            : V:\=Video=\Films\чехословакия\Knoflikari.1997.720p.HDTV.x264-DON\Knoflikari.1997.720p.HDTV.x264.Rus.Cze.mkv
Format                                   : Matroska
Format version                           : Version 2
File size                                : 4.25 GiB
Duration                                 : 1h 43mn
Overall bit rate                         : 5 900 Kbps
Movie name                               : Knoflíkáři (1997)
Encoded date                             : UTC 2014-06-09 06:49:26
Writing application                      : mkvmerge v5.8.0 ('No Sleep / Pillow') built on Sep  2 2012 15:37:04
Writing library                          : libebml v1.2.3 + libmatroska v1.3.0
Video
ID                                       : 1
Format                                   : AVC
Format/Info                              : Advanced Video Codec
Format profile                           : High@L4.1
Format settings, CABAC                   : Yes
Format settings, ReFrames                : 9 frames
Codec ID                                 : V_MPEG4/ISO/AVC
Duration                                 : 1h 43mn
Bit rate                                 : 5 142 Kbps
Width                                    : 1 196 pixels
Height                                   : 720 pixels
Display aspect ratio                     : 1.661
Frame rate mode                          : Constant
Frame rate                               : 25.000 fps
Color space                              : YUV
Chroma subsampling                       : 4:2:0
Bit depth                                : 8 bits
Scan type                                : Progressive
Bits/(Pixel*Frame)                       : 0.239
Stream size                              : 3.70 GiB (87%)
Writing library                          : x264 core 119 r2106 07efeb4
Encoding settings                        : cabac=1 / ref=9 / deblock=1:-3:-3 / analyse=0x3:0x133 / me=umh / subme=10 / psy=1 / psy_rd=1.20:0.20 / mixed_ref=1 / me_range=32 / chroma_me=1 / trellis=2 / 8x8dct=1 / cqm=0 / deadzone=21,11 / fast_pskip=0 / chroma_qp_offset=-3 / threads=12 / sliced_threads=0 / nr=0 / decimate=0 / interlaced=0 / bluray_compat=0 / constrained_intra=0 / bframes=7 / b_pyramid=2 / b_adapt=2 / b_bias=0 / direct=3 / weightb=1 / open_gop=0 / weightp=2 / keyint=250 / keyint_min=25 / scenecut=40 / intra_refresh=0 / rc_lookahead=60 / rc=crf / mbtree=1 / crf=18.0 / qcomp=0.75 / qpmin=0 / qpmax=69 / qpstep=4 / vbv_maxrate=50000 / vbv_bufsize=62500 / crf_max=0.0 / nal_hrd=none / ip_ratio=1.40 / aq=1:0.70
Language                                 : Czech
Default                                  : Yes
Forced                                   : No
Audio #1
ID                                       : 2
Format                                   : AC-3
Format/Info                              : Audio Coding 3
Mode extension                           : CM (complete main)
Format settings, Endianness              : Big
Codec ID                                 : A_AC3
Duration                                 : 1h 43mn
Bit rate mode                            : Constant
Bit rate                                 : 192 Kbps
Channel(s)                               : 2 channels
Channel positions                        : Front: L R
Sampling rate                            : 48.0 KHz
Bit depth                                : 16 bits
Compression mode                         : Lossy
Stream size                              : 142 MiB (3%)
Title                                    : VO
Language                                 : Russian
Default                                  : Yes
Forced                                   : No
Audio #2
ID                                       : 3
Format                                   : AC-3
Format/Info                              : Audio Coding 3
Mode extension                           : CM (complete main)
Format settings, Endianness              : Big
Codec ID                                 : A_AC3
Duration                                 : 1h 43mn
Bit rate mode                            : Constant
Bit rate                                 : 448 Kbps
Channel(s)                               : 2 channels
Channel positions                        : Front: L R
Sampling rate                            : 48.0 KHz
Bit depth                                : 16 bits
Compression mode                         : Lossy
Stream size                              : 330 MiB (8%)
Language                                 : Czech
Default                                  : No
Forced                                   : No
Text
ID                                       : 4
Format                                   : UTF-8
Codec ID                                 : S_TEXT/UTF8
Codec ID/Info                            : UTF-8 Plain Text
Language                                 : English
Default                                  : No
Forced                                   : No

Скриншоты




Показать сообщения:    

Текущее время: 04-Дек 13:17

Часовой пояс: UTC + 3


Вы не можете начинать темы
Вы не можете отвечать на сообщения
Вы не можете редактировать свои сообщения
Вы не можете удалять свои сообщения
Вы не можете голосовать в опросах
Вы не можете прикреплять файлы к сообщениям
Вы не можете скачивать файлы