Гавр / Le Havre (Аки Каурисмяки / Aki Kaurismaki) [2011, Финляндия, Франция, Германия, драма, комедия, BDRip 1080p] [Criterion Collection] MVO + Sub (Rus, Eng) + Original Fre


 

[Цитировать]

Гавр / Le Havre
Страна: Финляндия, Франция, Германия
Жанр: драма, комедия
Год выпуска: 2011
Продолжительность: 01:33:56
Перевод: Профессиональный (многоголосый закадровый) | студия "Омикрон"
Cубтитры: русские, английские
Оригинальная аудиодорожка: французский-Режиссер: Аки Каурисмяки / Aki Kaurismaki
В ролях: Андре Вилмс, Кати Оутинен, Жан-Пьер Дарруссен, Элина Сало, Эвелин Диди, Жан-Пьер Лео, Пьер Этекс
Описание: Марсель Маркс, в прошлом богемный писатель, переселяется в портовый город Гавр и становится чистильщиком сапог. Занятие, хоть и не очень хлебное, дает Марселю ощущение пользы для людей. Поставив крест на своих писательских амбициях, Марсель вполне доволен жизнью, проводя ее между работой, домом и ближайшим кабаком. Но однажды судьба сталкивает его с ребенком-иммигрантом из Черной Африки, а жена Марселя Арлетти тяжело заболевает. И вновь Марсель оказывается перед холодной стеной равнодушия и пробует победить слепую государственную машину, надвигающуюся на ребенка-беженца. Оружие Марселя - только врожденный оптимизм и поддержка многочисленных друзей. Сможет ли он победить в этой неравной борьбе?..
IMDb || КиноПоиск-Тип релиза: BDRip 1080p [Wiki]
Контейнер: MKV
Видео: x264/AVC Video, 1920x1036 at 23.976 fps, 18492 kbps
Аудио#1: Russian: 48 kHz, DTS, 5.1 ch, 1509 kbps |студия "Омикрон"
Аудио#2: French: 48 kHz, DTS, 5.1 ch, 1509 kbps
Формат субтитров: softsub (SRT)
Сэмпл

MediaInfox264

x264 [info]: frame I:786 Avg QP:19.71 size:286272
x264 [info]: frame P:22540 Avg QP:20.71 size:136163
x264 [info]: frame B:111795 Avg QP:22.53 size: 87031
x264 [info]: consecutive B-frames: 0.8% 0.2% 1.6% 4.0% 10.3% 61.2% 7.1% 3.4% 3.2% 4.8% 3.5%
General
Unique ID : 210292621105232546339241060540310864209 (0x9E34E2B72458036C9636BF4E8D43C151)
Complete name : N:Гавр\Le.Havre.2011.Criterion.1080p-Wiki.mkv
Format : Matroska
Format version : Version 2
File size : 14.1 GiB
Duration : 1h 33mn
Overall bit rate : 21.5 Mbps
Movie name :
Writing application : mkvmerge v5.0.1 ('Es ist Sommer') built on Nov 6 2011 16:23:40
Writing library : libebml v1.2.2 + libmatroska v1.3.0
Video
ID : 1
Format : AVC
Format/Info : Advanced Video Codec
Format profile : High@L4.1
Format settings, CABAC : Yes
Format settings, ReFrames : 4 frames
Codec ID : V_MPEG4/ISO/AVC
Duration : 1h 33mn
Bit rate : 18.5 Mbps
Width : 1 920 pixels
Height : 1 036 pixels
Display aspect ratio : 1.85:1
Frame rate mode : Constant
Frame rate : 23.976 fps
Color space : YUV
Chroma subsampling : 4:2:0
Bit depth : 8 bits
Scan type : Progressive
Bits/(Pixel*Frame) : 0.388
Stream size : 11.9 GiB (84%)
Title : Le.Havre.2011.Criterion.1080p-Wiki.
Writing library : x264 core 124 r2197+666+28 3970b70 tMod+MixAQ [8-bit@4:2:0 X86_64]
Encoding settings : cabac=1 / ref=4 / deblock=1:-3:-3 / analyse=0x3:0x133 / me=umh / subme=11 / psy=1 / fade_compensate=0.00 / psy_rd=1.05:0.15 / mixed_ref=1 / me_range=64 / chroma_me=1 / trellis=2 / 8x8dct=1 / cqm=0 / deadzone=21,11 / fast_pskip=0 / chroma_qp_offset=-3 / threads=12 / sliced_threads=0 / nr=0 / decimate=1 / interlaced=0 / bluray_compat=0 / constrained_intra=0 / fgo=0 / bframes=10 / b_pyramid=2 / b_adapt=2 / b_bias=0 / direct=3 / weightb=1 / open_gop=0 / weightp=2 / keyint=250 / keyint_min=23 / scenecut=40 / intra_refresh=0 / rc_lookahead=250 / rc=2pass / mbtree=1 / bitrate=18492 / ratetol=1.0 / qcomp=0.70 / qpmin=0 / qpmax=69 / qpstep=4 / cplxblur=20.0 / qblur=0.5 / vbv_maxrate=38000 / vbv_bufsize=30000 / nal_hrd=none / ip_ratio=1.40 / aq=1 / aq-strength=0.95 / aq-sensitivity=10.00 / aq-ifactor=1.00 / aq-pfactor=1.00 / aq-bfactor=1.00 / aq2=0
Language : French
Default : Yes
Forced : No
Audio #1
ID : 2
Format : DTS
Format/Info : Digital Theater Systems
Mode : 16
Format settings, Endianness : Big
Codec ID : A_DTS
Duration : 1h 33mn
Bit rate mode : Constant
Bit rate : 1 509 Kbps
Channel(s) : 6 channels
Channel positions : Front: L C R, Side: L R, LFE
Sampling rate : 48.0 KHz
Bit depth : 24 bits
Compression mode : Lossy
Stream size : 1 014 MiB (7%)
Language : Russian
Default : Yes
Forced : No
Audio #2
ID : 3
Format : DTS
Format/Info : Digital Theater Systems
Mode : 16
Format settings, Endianness : Big
Codec ID : A_DTS
Duration : 1h 33mn
Bit rate mode : Constant
Bit rate : 1 509 Kbps
Channel(s) : 6 channels
Channel positions : Front: L C R, Side: L R, LFE
Sampling rate : 48.0 KHz
Bit depth : 24 bits
Compression mode : Lossy
Stream size : 1 014 MiB (7%)
Language : French
Default : No
Forced : No
Text #1
ID : 4
Format : UTF-8
Codec ID : S_TEXT/UTF8
Codec ID/Info : UTF-8 Plain Text
Language : Russian
Default : No
Forced : No
Text #2
ID : 5
Format : UTF-8
Codec ID : S_TEXT/UTF8
Codec ID/Info : UTF-8 Plain Text
Language : English
Default : No
Forced : No
Menu
00:00:00.000 : en:Opening Credits/Shoeshines
00:05:08.141 : en:Preparations For Dinner
00:08:06.444 : en:An Aperitif
00:10:03.728 : en:"Won't You Eat?"
00:11:44.704 : en:The Living Dead
00:15:27.343 : en:"We're Looking For A Black Boy"
00:18:18.389 : en:"Chang"
00:21:57.900 : en:"Areletty Must Go To The Hospital"
00:24:36.016 : en:Idrissa
00:27:22.641 : en:"Miracles Do Happen"
00:30:11.059 : en:A Sinister Phone Call
00:33:17.996 : en:Lunch With The Inspector
00:35:40.180 : en:Research
00:39:47.135 : en:A Trip To Find Mahamet Saleh
00:44:27.248 : en:Refugee Center, Calais
00:47:58.125 : en:Discovered
00:50:54.468 : en:"Come Back In Two Weeks"
00:53:29.498 : en:"It Is Imperative That We Make Progress"
00:59:31.276 : en:"Arrange A Charity Concert"
01:03:36.855 : en:Little Bob And Mimie
01:08:11.087 : en:Idrissa And Arletty
01:10:34.021 : en:The Concert
01:14:56.033 : en:The Inspector Pays A Visit
01:19:55.582 : en:A Special Delivery
01:23:31.256 : en:"You May Go"
01:26:53.834 : en:Marcel's Final Visit To The Hospital
01:30:27.422 : en:End Credits

Скриншоты




Показать сообщения:    

Текущее время: 05-Дек 07:25

Часовой пояс: UTC + 3


Вы не можете начинать темы
Вы не можете отвечать на сообщения
Вы не можете редактировать свои сообщения
Вы не можете удалять свои сообщения
Вы не можете голосовать в опросах
Вы не можете прикреплять файлы к сообщениям
Вы не можете скачивать файлы