Одной рукой не похлопаешь / Одной рукой узла не завяжешь / Jedna ruka netleska (Давид Ондричек / David Ondricek) [2003, Чехия, чёрная комедия, HDTVRip 720p] VO (Kass) + Sub Eng + Original Cze


 

[Цитировать]

Одной рукой не похлопаешь / Одной рукой узла не завяжешь / Jedna ruka netleska
Страна: Чехия
Студия: Lucky Man Films
Жанр: чёрная комедия
Год выпуска: 2003
Продолжительность: 01:41:57
Перевод: Одноголосый закадровый (Kass)
Cубтитры: английские
Оригинальная аудиодорожка: чешский
Режиссер: David Ondricek / Давид Ондричек
В ролях: Jirí Machácek / Иржи Махачек, Ivan Trojan / Иван Троян, Marek Taclík / Марек Тацлик, Klára Pollertová / Клара Поллертова, Isabela Bencová / Изабела Бенчова, Kristina Lukesová / Кристина Лукешова, Vladimír Dlouhý / Владимир Длохий, Jan Triska / Ян Триска
Описание: Станда — неудачник и давно с этим смирился. Правда, он надеется, что удача придет к нему теперь, когда он по согласию отсидел срок и вот-вот получит награду. Однако в первый же день на свободе он встречает эдакого «услужливого медведя» — редкостного болвана Ондрея, — и невезение его возрастает в геометрической прогрессии. Более того, оно распространяется также и на человека, за которого он сидел. У пана Ветхого все схвачено: у него экологически чистый ресторан, ЭЧ дом, ЭЧ жена и ЭЧ дети. Но вот этот красивый фасад начинает рушиться, и из-под него лезет всякое-разное-безобразное.
Доп.информация:


Тип релиза: HDTVRip 720p (thnx DON) | сэмпл
Контейнер: MKV
Видео: H.264/AVC, 1280x706, 16:9, 25.00fps, 8899kbps
Аудио: Russian, DD 5.1, 48 kHz, 448kbps
Аудио 2: Czech, DD 5.1, 48 kHz, 448kbps
Формат субтитров: softsub (SRT)

MI

Complete name                            : Jedna.ruka.netleska.2003.720p.HDTV.Rus.Cze.mkv
Format                                   : Matroska
Format version                           : Version 2
File size                                : 6.19 GiB
Duration                                 : 1h 41mn
Overall bit rate                         : 8 693 Kbps
Movie name                               : Jedna ruka netleská (2003)
Encoded date                             : UTC 2014-06-06 06:43:32
Writing application                      : mkvmerge v5.8.0 ('No Sleep / Pillow') built on Sep  2 2012 15:37:04
Writing library                          : libebml v1.2.3 + libmatroska v1.3.0
Video
ID                                       : 1
Format                                   : AVC
Format/Info                              : Advanced Video Codec
Format profile                           : High@L4.1
Format settings, CABAC                   : Yes
Format settings, ReFrames                : 9 frames
Codec ID                                 : V_MPEG4/ISO/AVC
Duration                                 : 1h 41mn
Bit rate                                 : 7 624 Kbps
Width                                    : 1 280 pixels
Height                                   : 706 pixels
Display aspect ratio                     : 16:9
Frame rate mode                          : Constant
Frame rate                               : 25.000 fps
Color space                              : YUV
Chroma subsampling                       : 4:2:0
Bit depth                                : 8 bits
Scan type                                : Progressive
Bits/(Pixel*Frame)                       : 0.337
Stream size                              : 5.43 GiB (88%)
Writing library                          : x264 core 142 r2409 d6b4e63
Encoding settings                        : cabac=1 / ref=9 / deblock=1:-3:-3 / analyse=0x3:0x133 / me=tesa / subme=10 / psy=1 / psy_rd=1.05:0.00 / mixed_ref=1 / me_range=24 / chroma_me=1 / trellis=2 / 8x8dct=1 / cqm=0 / deadzone=21,11 / fast_pskip=0 / chroma_qp_offset=-2 / threads=12 / lookahead_threads=2 / sliced_threads=0 / nr=0 / decimate=0 / interlaced=0 / bluray_compat=0 / constrained_intra=0 / bframes=8 / b_pyramid=2 / b_adapt=2 / b_bias=0 / direct=3 / weightb=1 / open_gop=0 / weightp=2 / keyint=250 / keyint_min=25 / scenecut=40 / intra_refresh=0 / rc_lookahead=60 / rc=crf / mbtree=0 / crf=17.0 / qcomp=0.65 / qpmin=0 / qpmax=69 / qpstep=4 / vbv_maxrate=62500 / vbv_bufsize=78125 / crf_max=0.0 / nal_hrd=none / filler=0 / ip_ratio=1.40 / pb_ratio=1.30 / aq=1:0.70
Language                                 : Czech
Default                                  : Yes
Forced                                   : No
Audio #1
ID                                       : 2
Format                                   : AC-3
Format/Info                              : Audio Coding 3
Mode extension                           : CM (complete main)
Format settings, Endianness              : Big
Codec ID                                 : A_AC3
Duration                                 : 1h 41mn
Bit rate mode                            : Constant
Bit rate                                 : 448 Kbps
Channel(s)                               : 6 channels
Channel positions                        : Front: L C R, Side: L R, LFE
Sampling rate                            : 48.0 KHz
Bit depth                                : 16 bits
Compression mode                         : Lossy
Stream size                              : 327 MiB (5%)
Title                                    : V0 [Kass]
Language                                 : Russian
Default                                  : Yes
Forced                                   : No
Audio #2
ID                                       : 3
Format                                   : AC-3
Format/Info                              : Audio Coding 3
Mode extension                           : CM (complete main)
Format settings, Endianness              : Big
Codec ID                                 : A_AC3
Duration                                 : 1h 41mn
Bit rate mode                            : Constant
Bit rate                                 : 448 Kbps
Channel(s)                               : 6 channels
Channel positions                        : Front: L C R, Side: L R, LFE
Sampling rate                            : 48.0 KHz
Bit depth                                : 16 bits
Compression mode                         : Lossy
Stream size                              : 327 MiB (5%)
Language                                 : Czech
Default                                  : No
Forced                                   : No
Text
ID                                       : 4
Format                                   : UTF-8
Codec ID                                 : S_TEXT/UTF8
Codec ID/Info                            : UTF-8 Plain Text
Language                                 : English
Default                                  : No
Forced                                   : No

Скриншоты




Показать сообщения:    

Текущее время: 11-Дек 01:24

Часовой пояс: UTC + 3


Вы не можете начинать темы
Вы не можете отвечать на сообщения
Вы не можете редактировать свои сообщения
Вы не можете удалять свои сообщения
Вы не можете голосовать в опросах
Вы не можете прикреплять файлы к сообщениям
Вы не можете скачивать файлы