Капризное лето / Rozmarne leto (Иржи Менцель / Jiri Menzel) [1968, Чехословакия, трагикомедия, HDTVRip 720p] VO + Sub Eng + Original Cze


 

[Цитировать]

Капризное лето / Rozmarné léto
Страна: Чехословакия
Жанр: трагикомедия
Год выпуска: 1968
Продолжительность: 01:13:10
Перевод: Одноголосый закадровый (Ирина Гусева)
Cубтитры: английские
Оригинальная аудиодорожка: чешский
Режиссер: Иржи Менцель / Jiri Menzel
В ролях: Рудольф Грушинский, Властимил Бродский, Франтишек Ржегак, Мила Мисликова, Яна Прейссова, Иржи Менцель, Богуш Загорский, Алоис Вачек, Богумил Кошка, Карел Говорка
Описание: Смешная история о трех друзьях, которые пытались ухаживать за девушкой приезжего фокусника.
Доп.информация:


Тип релиза: HDTVRip 720p (thnx DON) | сэмпл
Контейнер: MKV
Видео: H.264/AVC, 986x720, 4:3, 25.00fps, 7484kbps
Аудио: Russian, DD 2.0, 48 kHz, 192kbps
Аудио 2: Czech, DD 2.0, 48 kHz, 192kbps
Формат субтитров: softsub (SRT)

MediaInfo

Complete name                            : Rozmarne.leto.1968.720p.HDTV.Rus.Cze.mkv
Format                                   : Matroska
Format version                           : Version 2
File size                                : 4.10 GiB
Duration                                 : 1h 13mn
Overall bit rate                         : 8 028 Kbps
Movie name                               : Rozmarné léto (1968)
Encoded date                             : UTC 2014-06-06 09:37:26
Writing application                      : mkvmerge v5.8.0 ('No Sleep / Pillow') built on Sep  2 2012 15:37:04
Writing library                          : libebml v1.2.3 + libmatroska v1.3.0
Video
ID                                       : 1
Format                                   : AVC
Format/Info                              : Advanced Video Codec
Format profile                           : High@L4.1
Format settings, CABAC                   : Yes
Format settings, ReFrames                : 11 frames
Codec ID                                 : V_MPEG4/ISO/AVC
Duration                                 : 1h 13mn
Bit rate                                 : 7 484 Kbps
Width                                    : 986 pixels
Height                                   : 720 pixels
Display aspect ratio                     : 4:3
Frame rate mode                          : Constant
Frame rate                               : 25.000 fps
Color space                              : YUV
Chroma subsampling                       : 4:2:0
Bit depth                                : 8 bits
Scan type                                : Progressive
Bits/(Pixel*Frame)                       : 0.422
Stream size                              : 3.83 GiB (93%)
Writing library                          : x264 core 140 r2377 1ca7bb9
Encoding settings                        : cabac=1 / ref=11 / deblock=1:-3:-3 / analyse=0x3:0x133 / me=tesa / subme=10 / psy=1 / psy_rd=1.05:0.00 / mixed_ref=1 / me_range=24 / chroma_me=1 / trellis=2 / 8x8dct=1 / cqm=0 / deadzone=21,11 / fast_pskip=0 / chroma_qp_offset=-2 / threads=12 / lookahead_threads=2 / sliced_threads=0 / nr=0 / decimate=0 / interlaced=0 / bluray_compat=0 / constrained_intra=0 / bframes=8 / b_pyramid=2 / b_adapt=2 / b_bias=0 / direct=3 / weightb=1 / open_gop=0 / weightp=2 / keyint=250 / keyint_min=25 / scenecut=40 / intra_refresh=0 / rc_lookahead=60 / rc=crf / mbtree=0 / crf=16.5 / qcomp=0.60 / qpmin=0 / qpmax=69 / qpstep=4 / vbv_maxrate=62500 / vbv_bufsize=78125 / crf_max=0.0 / nal_hrd=none / filler=0 / ip_ratio=1.30 / pb_ratio=1.20 / aq=1:0.70
Language                                 : Czech
Default                                  : Yes
Forced                                   : No
Audio #1
ID                                       : 2
Format                                   : AC-3
Format/Info                              : Audio Coding 3
Mode extension                           : CM (complete main)
Format settings, Endianness              : Big
Codec ID                                 : A_AC3
Duration                                 : 1h 13mn
Bit rate mode                            : Constant
Bit rate                                 : 192 Kbps
Channel(s)                               : 2 channels
Channel positions                        : Front: L R
Sampling rate                            : 48.0 KHz
Bit depth                                : 16 bits
Compression mode                         : Lossy
Stream size                              : 100 MiB (2%)
Title                                    : V0 [Ирина Гусева]
Language                                 : Russian
Default                                  : Yes
Forced                                   : No
Audio #2
ID                                       : 3
Format                                   : AC-3
Format/Info                              : Audio Coding 3
Mode extension                           : CM (complete main)
Format settings, Endianness              : Big
Codec ID                                 : A_AC3
Duration                                 : 1h 13mn
Bit rate mode                            : Constant
Bit rate                                 : 192 Kbps
Channel(s)                               : 2 channels
Channel positions                        : Front: L R
Sampling rate                            : 48.0 KHz
Bit depth                                : 16 bits
Compression mode                         : Lossy
Stream size                              : 100 MiB (2%)
Title                                    : DD 2.0
Language                                 : Czech
Default                                  : No
Forced                                   : No
Text
ID                                       : 4
Format                                   : UTF-8
Codec ID                                 : S_TEXT/UTF8
Codec ID/Info                            : UTF-8 Plain Text
Language                                 : English
Default                                  : No
Forced                                   : No
Menu
00:00:00.000                             : cs:Úvodní titulky - Říční lázně
00:05:33.600                             : cs:Antonín býval velmi zamilován
00:09:15.640                             : cs:Jezme a pijme
00:14:32.320                             : cs:Kouzelník Arnoštek
00:20:02.520                             : cs:Vystoupení
00:25:58.720                             : cs:Lehni si bez starostí...
00:32:01.680                             : cs:Anna z vozu kouzelníkova
00:38:42.600                             : cs:Dvě ženy
00:45:26.640                             : cs:Natržené ucho
00:51:36.880                             : cs:Kateřina u Arnoštka
00:58:35.480                             : cs:Vystoupení Aničky
01:06:57.800                             : cs:Souboj

Скриншоты




Показать сообщения:    

Текущее время: 02-Дек 21:15

Часовой пояс: UTC + 3


Вы не можете начинать темы
Вы не можете отвечать на сообщения
Вы не можете редактировать свои сообщения
Вы не можете удалять свои сообщения
Вы не можете голосовать в опросах
Вы не можете прикреплять файлы к сообщениям
Вы не можете скачивать файлы