Последний император / The Last Emperor (Бернардо Бертолуччи / Bernardo Bertolucci) [1987, Китай, Италия, Великобритания, Франция, драма, биография, история, BDRip 720p] [Extended Cut] MVO + Sub (Rus, Eng) + Original Eng


 

[Цитировать]

Последний император / The Last Emperor
Страна: Китай, Италия, Великобритания, Франция
Жанр: драма, биография, история
Год выпуска: 1987
Продолжительность: 03:38:34
Перевод: Профессиональный (многоголосый закадровый) | Cinema Prestige
Cубтитры: русские, английские
Оригинальная аудиодорожка: английский-Режиссер: Бернардо Бертолуччи / Bernardo Bertolucci
В ролях: Джон Лоун, Джоан Чен, Питер О'Тул, Виктор Вонг, Деннис Дун, Рюити Сакамото, Мэгги Ан, Рик Янг, Вивьен Ву, Кэри-Хироюки Тагава, Лиза Лу, Хидео Такамацу
Описание: Драматическая история Пу И, последнего императора Китая, от его рождения до сложения полномочий и неясного существования в Народной республике.
IMDb || КиноПоиск-Тип релиза: BDRip 720p [HDMaNiAcS]
Контейнер: MKV
Видео: x264/AVC, 1280x544 at 23.976 fps, 6500 kbps
Аудио#1: Russian: 48 kHz, AC3, 5.1 ch, 384 kbps |Cinema Prestige
Аудио#2: English: 48 kHz, DTS, 5.1 ch, 1509 kbps
Формат субтитров: softsub (SRT)
Сэмпл

MediaInfo

General
Unique ID : 186580699444609665299405176048281775282 (0x8C5E22B75ECC92CC84D6A21F0DC0ECB2)
Complete name : N:\Rutracker\Последний император\The.Last.Emperor.1987.Extended.720p-HDMaNiAcS. rutracker.mkv
Format : Matroska
Format version : Version 2
File size : 12.8 GiB
Duration : 3h 38mn
Overall bit rate : 8 392 Kbps
Movie name : Release for RuTracker
Encoded date : UTC 2014-06-04 00:57:11
Writing application : mkvmerge v5.0.1 ('Es ist Sommer') built on Nov 6 2011 16:23:40
Writing library : libebml v1.2.2 + libmatroska v1.3.0
Video
ID : 1
Format : AVC
Format/Info : Advanced Video Codec
Format profile : High@L4.1
Format settings, CABAC : Yes
Format settings, ReFrames : 12 frames
Codec ID : V_MPEG4/ISO/AVC
Duration : 3h 38mn
Bit rate : 6 500 Kbps
Width : 1 280 pixels
Height : 544 pixels
Display aspect ratio : 2.35:1
Frame rate mode : Constant
Frame rate : 23.976 fps
Color space : YUV
Chroma subsampling : 4:2:0
Bit depth : 8 bits
Scan type : Progressive
Bits/(Pixel*Frame) : 0.389
Stream size : 9.67 GiB (75%)
Title : The.Last.Emperor.1987.Extended.720p-HDMaNiAcS. rutracker
Writing library : x264 core 133 r2334 a3ac64b
Encoding settings : cabac=1 / ref=12 / deblock=1:-3:-3 / analyse=0x3:0x113 / me=tesa / subme=11 / psy=1 / psy_rd=1.00:0.12 / mixed_ref=1 / me_range=24 / chroma_me=1 / trellis=2 / 8x8dct=1 / cqm=0 / deadzone=21,11 / fast_pskip=1 / chroma_qp_offset=-2 / threads=18 / lookahead_threads=3 / sliced_threads=0 / nr=0 / decimate=0 / interlaced=0 / bluray_compat=0 / constrained_intra=0 / bframes=8 / b_pyramid=2 / b_adapt=2 / b_bias=0 / direct=1 / weightb=1 / open_gop=0 / weightp=2 / keyint=240 / keyint_min=23 / scenecut=40 / intra_refresh=0 / rc_lookahead=40 / rc=2pass / mbtree=0 / bitrate=6500 / ratetol=1.0 / qcomp=0.60 / qpmin=0 / qpmax=69 / qpstep=4 / cplxblur=20.0 / qblur=0.5 / vbv_maxrate=50000 / vbv_bufsize=62500 / nal_hrd=none / ip_ratio=1.40 / pb_ratio=1.30 / aq=2:0.95
Language : English
Default : Yes
Forced : No
Audio #1
ID : 2
Format : AC-3
Format/Info : Audio Coding 3
Mode extension : CM (complete main)
Format settings, Endianness : Big
Codec ID : A_AC3
Duration : 3h 38mn
Bit rate mode : Constant
Bit rate : 384 Kbps
Channel(s) : 6 channels
Channel positions : Front: L C R, Side: L R, LFE
Sampling rate : 48.0 KHz
Bit depth : 16 bits
Compression mode : Lossy
Stream size : 600 MiB (5%)
Language : Russian
Default : Yes
Forced : No
Audio #2
ID : 3
Format : DTS
Format/Info : Digital Theater Systems
Mode : 16
Format settings, Endianness : Big
Codec ID : A_DTS
Duration : 3h 38mn
Bit rate mode : Constant
Bit rate : 1 509 Kbps
Channel(s) : 6 channels
Channel positions : Front: L C R, Side: L R, LFE
Sampling rate : 48.0 KHz
Bit depth : 24 bits
Compression mode : Lossy
Stream size : 2.30 GiB (18%)
Language : English
Default : No
Forced : No
Text #1
ID : 4
Format : UTF-8
Codec ID : S_TEXT/UTF8
Codec ID/Info : UTF-8 Plain Text
Language : Russian
Default : No
Forced : No
Text #2
ID : 5
Format : UTF-8
Codec ID : S_TEXT/UTF8
Codec ID/Info : UTF-8 Plain Text
Language : English
Default : No
Forced : No
Menu
00:00:00.000 : en:00:00:00.000
00:09:58.348 : en:00:09:58.348
00:20:07.623 : en:00:20:07.623
00:28:58.111 : en:00:28:58.111
00:40:21.753 : en:00:40:21.753
00:51:57.990 : en:00:51:57.990
01:01:13.420 : en:01:01:13.420
01:06:10.508 : en:01:06:10.508
01:13:23.858 : en:01:13:23.858
01:26:49.413 : en:01:26:49.413
01:41:10.815 : en:01:41:10.815
01:49:21.764 : en:01:49:21.764
01:57:35.048 : en:01:57:35.048
02:05:32.150 : en:02:05:32.150
02:12:52.089 : en:02:12:52.089
02:22:19.197 : en:02:22:19.197
02:30:05.663 : en:02:30:05.663
02:36:53.070 : en:02:36:53.070
02:46:19.761 : en:02:46:19.761
02:55:52.292 : en:02:55:52.292
03:07:08.843 : en:03:07:08.843
03:18:44.830 : en:03:18:44.830
03:22:46.446 : en:03:22:46.446
03:34:10.171 : en:03:34:10.171

Скриншоты

Criterion vs JPN (director's cut) _________________________



Показать сообщения:    

Текущее время: 08-Дек 19:09

Часовой пояс: UTC + 3


Вы не можете начинать темы
Вы не можете отвечать на сообщения
Вы не можете редактировать свои сообщения
Вы не можете удалять свои сообщения
Вы не можете голосовать в опросах
Вы не можете прикреплять файлы к сообщениям
Вы не можете скачивать файлы