Вкус солнечного света / Sunshine / A napfeny ize (Иштван Сабо /István Szabó) [1999, Германия, Австрия, Канада, Венгрия , драма, мелодрама, военный,, WEB-DL 720p] DVO + Original Eng + Sub Rus, Eng


 

[Цитировать]

Вкус солнечного света / Sunshine Страна: Германия, Австрия, Канада, Венгрия
Студия: Alliance Atlantis Communications, Bavaria Film and Television Fund, Channel Four Films
Жанр: драма, мелодрама, военный, история
Год выпуска: 1999
Продолжительность: 03:00:34
Перевод: Профессиональный (двухголосый закадровый) Парадиз
Cубтитры: русские, английские
Оригинальная аудиодорожка: Английский
Режиссер: Иштван Сабо /István Szabó
В ролях: Рэйф Файнс, Розмари Харрис, Дженнифер Или, Рейчел Вайс, Дебора Кара Ангер, Молли Паркер, Джеймс Фрейн, Давид де Кейзер, Джон Невилл, Мириам Маргулис
Описание: Революции, войны, чудовищный фашизм, концентрационные лагеря заставляли их на протяжении долгих десятилетий изворачиваться под ударами судьбы, скрывать свое происхождение, изменять фамилию и веру, чтобы в конечном итоге прийти к выводу, что несмотря ни на что надо быть верным только самому себе и своему народу.

Качество видео:WEB-DL 720p
Формат видео: MKV
Видео кодек: H264
Аудио кодек: AC3
Видео: 1280x720 (1.77:1), 23,976 fps, ~3928 kbps avg, 0.178 bit/pixel
Аудио 1: 48 kHz, AC3 Dolby Digital, 2/0 (L,R) ch, ~192 kbps - Двухголоска
Аудио 2: 48 kHz, AC3 Dolby Digital, 3/2 (L,C,R,l,r) + LFE ch, ~448 kbps - Оригинал

MediaInfo

Complete name : Vkus.solnechnogo.sveta.1999.WEBDLRip720p.mkv
Format : Matroska
Format version : Version 4 / Version 2
File size : 5.88 GiB
Duration : 3h 0mn
Overall bit rate : 4 661 Kbps
Encoded date : UTC 2014-05-28 19:09:41
Writing application : mkvmerge v6.5.0 ('Isn't she lovely') built on Oct 20 2013 12:50:05
Writing library : libebml v1.3.0 + libmatroska v1.4.1
Video
ID : 1
Format : AVC
Format/Info : Advanced Video Codec
Format profile : High@L3.1
Format settings, CABAC : No
Format settings, ReFrames : 2 frames
Codec ID : V_MPEG4/ISO/AVC
Duration : 3h 0mn
Bit rate : 3 928 Kbps
Width : 1 280 pixels
Height : 720 pixels
Display aspect ratio : 16:9
Frame rate mode : Constant
Frame rate : 23.976 fps
Color space : YUV
Chroma subsampling : 4:2:0
Bit depth : 8 bits
Scan type : Progressive
Bits/(Pixel*Frame) : 0.178
Stream size : 4.95 GiB (84%)
Language : English
Default : Yes
Forced : No
Color primaries : BT.709
Transfer characteristics : BT.709
Matrix coefficients : BT.709
Audio #1
ID : 2
Format : AC-3
Format/Info : Audio Coding 3
Mode extension : CM (complete main)
Format settings, Endianness : Big
Codec ID : A_AC3
Duration : 3h 0mn
Bit rate mode : Constant
Bit rate : 192 Kbps
Channel(s) : 2 channels
Channel positions : Front: L R
Sampling rate : 48.0 KHz
Bit depth : 16 bits
Compression mode : Lossy
Stream size : 248 MiB (4%)
Language : Russian
Default : Yes
Forced : No
Audio #2
ID : 3
Format : AC-3
Format/Info : Audio Coding 3
Mode extension : CM (complete main)
Format settings, Endianness : Big
Codec ID : A_AC3
Duration : 3h 0mn
Bit rate mode : Constant
Bit rate : 448 Kbps
Channel(s) : 6 channels
Channel positions : Front: L C R, Side: L R, LFE
Sampling rate : 48.0 KHz
Bit depth : 16 bits
Compression mode : Lossy
Stream size : 579 MiB (10%)
Language : English
Default : No
Forced : No
Text #1
ID : 4
Format : UTF-8
Codec ID : S_TEXT/UTF8
Codec ID/Info : UTF-8 Plain Text
Language : Russian
Default : No
Forced : No
Text #2
ID : 5
Format : UTF-8
Codec ID : S_TEXT/UTF8
Codec ID/Info : UTF-8 Plain Text
Language : English
Default : No
Forced : No
Menu
00:00:00.000 : en:Main Credits
00:02:35.000 : en:Emmanuel's Warning to Ignatz
00:12:08.000 : en:Valerie Visits Ignatz in Vienna
00:15:35.000 : en:Ignatz Returns to Budapest
00:20:34.000 : en:Changing Their Names
00:24:38.000 : en:Ignatz and Valerie's Wedding
00:31:19.000 : en:"You're a Bright Young Man, Sors."
00:36:39.000 : en:The Invitation to Join the Ruling Class
00:43:30.000 : en:Ignatz Meets Emperor Franz Joseph
00:49:03.000 : en:A Family Separated by War
00:53:58.000 : en:The Monarchy Crumbles and Revolution Erupts
01:00:04.000 : en:Adam Becomes a Fencing Master
01:09:25.000 : en:Conversion and Assimilation: Adam Joins the Officer's Club
01:15:48.000 : en:Choosing a Winning Team
01:24:18.000 : en:Victory at the Olympics
01:35:41.000 : en:Adam's Affair with Greta
01:38:57.000 : en:The Jewish Laws
01:46:57.000 : en:Exile and Torture in the Labor Camp
01:53:08.000 : en:After the War: Gustave and Ivan Return Home
01:58:30.000 : en:Identifying and Interrogating the Collaborators
02:05:19.000 : en:Ivan and Carole Escape the Dreary Function
02:10:48.000 : en:The Family Rediscover the Taste of Sunshine
02:16:56.000 : en:Ivan and Carole's Illicit Affair
02:20:19.000 : en:Uncovering a Monstrous Jewish Conspiracy
02:25:45.000 : en:Andor Knorr's Confession
02:33:19.000 : en:Ivan's Speech at Andor's Funeral
02:37:17.000 : en:The Revolution is Put Down and Ivan Jailed
02:42:27.000 : en:Ivan Finds Emmanuel's Letter To Ignatz
02:55:47.000 : en:End Credits

Скриншоты




Показать сообщения:    

Текущее время: 04-Дек 04:53

Часовой пояс: UTC + 3


Вы не можете начинать темы
Вы не можете отвечать на сообщения
Вы не можете редактировать свои сообщения
Вы не можете удалять свои сообщения
Вы не можете голосовать в опросах
Вы не можете прикреплять файлы к сообщениям
Вы не можете скачивать файлы