Нимфоманка: Часть 2 / Nymphomaniac: Vol. II (Ларс фон Триер / Lars von Trier) [2013, Дания, Драма, BDRip 720p] Dub + DVO (HamsterStudio) + Sub Rus, Eng + Original Eng


 

[Цитировать]

Нимфоманка: Часть 2 / Nymphomaniac: Vol. II
Страна: Дания
Жанр: Драма
Год выпуска: 2013
Продолжительность: 02:03:30
Перевод 1: Любительский (дублированный)
Перевод 2: Любительский (двухголосый закадровый) HamsterStudio
Cубтитры: русские, английские
Оригинальная аудиодорожка: английский
Режиссер: Ларс фон Триер / Lars von Trier
В ролях: Шарлотта Генсбур, Стеллан Скарсгард, Шайа ЛаБаф, Джейми Белл, Стэйси Мартин, Уиллем Дефо, Миа Гот, Жан-Марк Барр, Майкл Пас, Конни Нильсен
Описание: Однажды одинокий и уже не особенно молодой мужчина по имени Селигман нашел на улице Джо – сильно избитую женщину, лежащую без сознания. Принеся ее домой и осмотрев раны, Селигман в приходит в недоумение: как с ней могла приключиться такая беда? В ответ на этот вопрос Джо дает Селигману исчерпывающий ответ – начинает рассказывать свою историю, окрашенную во все тона эротических переживаний. Будучи еще совсем юной девушкой, Джо сама поставила себе диагноз «нимфомания» и решила, что нет смысла сдерживать сексуальные желания.
Джо, которой давно хотелось выговориться, с охотой рассеивает недоумение Селигмана, многое не понимающего, и рассказывает о своем взрослении, появлении интереса к противоположному полу, первом сексуальном опыте и многочисленных интимных переживаниях. К своим пятидесяти годам Джо успела провести немало экспериментов и осуществила несколько попыток что-то изменить в себе, включая посещение анонимной группы поддержки, но не похоже, что это хоть как-то приблизило ее к переменам.
Сэмпл: http://yadi.sk/d/yWcurr9zP3AGv
Качество видео: BDRip 720p
Формат видео: MKV
Видео: AVC, 1280x546, 2.35:1, 23.976 fps, 9684 Kbps
Аудио 1: AC-3, 48000Hz, 384 Kbps, 6 ch., Русский, Дубляж
Аудио 2: AC-3, 48000Hz, 192 Kbps, 2 ch., Русский, Любительский (двухголосый)
Аудио 3: AC-3, 48000Hz, 640 Kbps, 6 ch., English, Original
Часть 1: http://teatrix.ru/viewtopic.php?t=6960

MediaInfo

F:\Фильмы\Nymphomaniac.Vol.II.2013.Blu.Ray.720p. СПАМ
General
Unique ID : 235304464462459933953253309825234539024 (0xB105FDCD6A17BD74AB1998FE829C9210)
Complete name : F:\Фильмы\Nymphomaniac.Vol.II.2013.Blu.Ray.720p. СПАМ
Format : Matroska
Format version : Version 4 / Version 2
File size : 9.59 GiB
Duration : 2h 3mn
Overall bit rate : 11.1 Mbps
Movie name : Release Group СПАМ
Encoded date : UTC 2014-05-04 14:37:53
Writing application : mkvmerge v6.9.1 ('Blue Panther') 64bit built on Apr 18 2014 18:23:38
Writing library : libebml v1.3.0 libmatroska v1.4.1
Video #1
ID : 1
Format : AVC
Format/Info : Advanced Video Codec
Format profile : High@L4.1
Format settings, CABAC : Yes
Format settings, ReFrames : 11 frames
Codec ID : V_MPEG4/ISO/AVC
Duration : 2h 3mn
Bit rate : 9 684 Kbps
Width : 1 280 pixels
Height : 546 pixels
Display aspect ratio : 2.35:1
Frame rate mode : Constant
Frame rate : 23.976 fps
Color space : YUV
Chroma subsampling : 4:2:0
Bit depth : 8 bits
Scan type : Progressive
Bits/(Pixel*Frame) : 0.578
Stream size : 8.35 GiB (87%)
Title : Release Group СПАМ
Writing library : x264 core 142 r2431 ac76440
Encoding settings : cabac=1 / ref=11 / deblock=1:-3:-3 / analyse=0x3:0x133 / me=umh / subme=10 / psy=1 / psy_rd=1.00:0.00 / mixed_ref=1 / me_range=16 / chroma_me=1 / trellis=2 / 8x8dct=1 / cqm=0 / deadzone=21,11 / fast_pskip=0 / chroma_qp_offset=-2 / threads=6 / lookahead_threads=1 / sliced_threads=0 / nr=0 / decimate=1 / interlaced=0 / bluray_compat=0 / constrained_intra=0 / bframes=10 / b_pyramid=2 / b_adapt=2 / b_bias=0 / direct=3 / weightb=1 / open_gop=0 / weightp=2 / keyint=250 / keyint_min=23 / scenecut=40 / intra_refresh=0 / rc=crf / mbtree=0 / crf=16.0 / qcomp=0.75 / qpmin=0 / qpmax=69 / qpstep=4 / ip_ratio=1.40 / pb_ratio=1.30 / aq=1:0.90
Language : English
Default : Yes
Forced : No
Audio #2
ID : 2
Format : AC-3
Format/Info : Audio Coding 3
Mode extension : CM (complete main)
Format settings, Endianness : Big
Codec ID : A_AC3
Duration : 2h 3mn
Bit rate mode : Constant
Bit rate : 384 Kbps
Channel count : 6 channels
Channel positions : Front: L C R, Side: L R, LFE
Sampling rate : 48.0 KHz
Bit depth : 16 bits
Compression mode : Lossy
Stream size : 339 MiB (3%)
Title : Дубляж
Language : Russian
Default : Yes
Forced : Yes
Audio #3
ID : 3
Format : AC-3
Format/Info : Audio Coding 3
Mode extension : CM (complete main)
Format settings, Endianness : Big
Codec ID : A_AC3
Duration : 2h 3mn
Bit rate mode : Constant
Bit rate : 192 Kbps
Channel count : 2 channels
Channel positions : Front: L R
Sampling rate : 48.0 KHz
Bit depth : 16 bits
Compression mode : Lossy
Stream size : 170 MiB (2%)
Title : HamsterStudio
Language : Russian
Default : No
Forced : No
Audio #4
ID : 4
Format : AC-3
Format/Info : Audio Coding 3
Mode extension : CM (complete main)
Format settings, Endianness : Big
Codec ID : A_AC3
Duration : 2h 3mn
Bit rate mode : Constant
Bit rate : 640 Kbps
Channel count : 6 channels
Channel positions : Front: L C R, Side: L R, LFE
Sampling rate : 48.0 KHz
Bit depth : 16 bits
Compression mode : Lossy
Stream size : 565 MiB (6%)
Language : English
Default : No
Forced : No
Text #5
ID : 5
Format : UTF-8
Codec ID : S_TEXT/UTF8
Codec ID/Info : UTF-8 Plain Text
Title : notabenoid
Language : Russian
Default : No
Forced : No
Text #6
ID : 6
Format : UTF-8
Codec ID : S_TEXT/UTF8
Codec ID/Info : UTF-8 Plain Text
Language : English
Default : No
Forced : No

Скриншоты




Показать сообщения:    

Текущее время: 07-Дек 15:29

Часовой пояс: UTC + 3


Вы не можете начинать темы
Вы не можете отвечать на сообщения
Вы не можете редактировать свои сообщения
Вы не можете удалять свои сообщения
Вы не можете голосовать в опросах
Вы не можете прикреплять файлы к сообщениям
Вы не можете скачивать файлы