Выводок / The Brood (Дэвид Кроненберг / David Cronenberg) [1979, Канада, ужасы, фантастика, BDRemux 1080p] 2х AVO (Визгунов, Карцев) + Sub Eng + Original Eng


 

[Цитировать]

Выводок / The Brood
Страна: Канада
Жанр: ужасы, фантастика
Год выпуска: 1979
Продолжительность: 01:32:13
Перевод: Авторский (одноголосый закадровый) Сергей Визгунов
Перевод: Авторский (одноголосый закадровый) Петр Карцев
Cубтитры: английские
Оригинальная аудиодорожка: английский
Режиссер: Дэвид Кроненберг / David Cronenberg
В ролях: Оливер Рид, Саманта Эггар, Арт Хиндл, Генри Бекман, Нуала Фицджералд, Синди Хиндс, Сьюзэн Хоган, Гари МакКихан, Майкл Маджи, Роберт А. Силверман
Описание: Франк Карвет обеспокоен за свою маленькую дочь. Когда он привез Кэндис на выходные из института психоплазматики, где проходит лечение ее мать Нола, то обнаружил раны на теле девочки. Он отвозит Кэндис к матери Нолы, но странное небольшое существо убивает ее, а девочку находят спящей и ничего не помнящей.
После очередного убийства полиции удается получить экземпляр таинственного киллера. По его виду становится понятно, что он искусственного происхождения. Так что же творит с людьми доктор Рэглан?
Доп. информация: Исходник - The Brood 1979 1080p GBR Blu-ray AVC LPCM 2.0-BIZON1984 (thnx bizon1984 @ HDBits)
Визгунов
Сэмпл: http://yadi.sk/d/9glWRVbNQj3Li
Тип релиза: BDRemux 1080p
Контейнер: MKV
Видео: MPEG-4 AVC Video / 19806 kbps / 1080p / 23.976 fps / 16:9 / High Profile 4.1
Аудио: Russian / Dolby Digital Audio / 2.0 / 48 kHz / 192 kbps / 16-bit (Визгунов)
Аудио: Russian / Dolby Digital Audio / 2.0 / 48 kHz / 192 kbps / 16-bit (Карцев)
Аудио: English / LPCM Audio / 2.0 / 48 kHz / 1536 kbps / 16-bit

MediaInfo

Общее
Уникальный идентификатор : 205516788487682865237177896454563644241 (0x9A9D17FCDF4489E28DBD6BBA79454351)
Полное имя : G:\Фильмы\The Brood 1979 BDRemux.mkv
Формат : Matroska
Версия формата : Version 4 / Version 2
Размер файла : 14,0 Гбайт
Продолжительность : 1 ч. 32 м.
Режим общего битрейта : Переменный
Общий поток : 21,7 Мбит/сек
Название фильма : The.Brood.1979.Remux
Дата кодирования : UTC 2014-05-19 12:23:24
Программа кодирования : mkvmerge v6.9.1 ('Blue Panther') 64bit built on Apr 18 2014 18:23:38
Библиотека кодирования : libebml v1.3.0 + libmatroska v1.4.1
Видео
Идентификатор : 1
Формат : AVC
Формат/Информация : Advanced Video Codec
Профиль формата : High@L4.1
Параметр CABAC формата : Да
Параметр ReFrames формата : 4 кадра
Идентификатор кодека : V_MPEG4/ISO/AVC
Продолжительность : 1 ч. 32 м.
Вид битрейта : Переменный
Максимальный битрейт : 40,0 Мбит/сек
Ширина : 1920 пикселей
Высота : 1080 пикселей
Соотношение сторон : 16:9
Режим частоты кадров : Постоянный
Частота кадров : 23,976 кадра/сек
Стандарт вещания : NTSC
Цветовое пространство : YUV
Субдискретизация насыщенности : 4:2:0
Битовая глубина : 8 бит
Тип развёртки : Прогрессивная
Заголовок : The.Brood.1979.BD.1080p.AVC
Язык : English
Default : Да
Forced : Нет
Основные цвета : BT.709
Характеристики трансфера : BT.709
Коэффициенты матрицы : BT.709
Аудио #1
Идентификатор : 2
Формат : AC-3
Формат/Информация : Audio Coding 3
Расширение режима : CM (complete main)
Параметр Endianness формата : Big
Идентификатор кодека : A_AC3
Продолжительность : 1 ч. 32 м.
Вид битрейта : Постоянный
Битрейт : 192 Кбит/сек
Каналы : 2 канала
Расположение каналов : Front: L R
Частота : 48,0 КГц
Битовая глубина : 16 бит
Метод сжатия : С потерями
Размер потока : 127 Мбайт (1%)
Заголовок : Визгунов
Язык : Russian
Default : Да
Forced : Нет
Аудио #2
Идентификатор : 3
Формат : AC-3
Формат/Информация : Audio Coding 3
Расширение режима : CM (complete main)
Параметр Endianness формата : Big
Идентификатор кодека : A_AC3
Продолжительность : 1 ч. 32 м.
Вид битрейта : Постоянный
Битрейт : 192 Кбит/сек
Каналы : 2 канала
Расположение каналов : Front: L R
Частота : 48,0 КГц
Битовая глубина : 16 бит
Метод сжатия : С потерями
Размер потока : 127 Мбайт (1%)
Заголовок : Карцев
Язык : Russian
Default : Нет
Forced : Нет
Аудио #3
Идентификатор : 4
Формат : PCM
Идентификатор кодека : A_PCM/INT/LIT
Продолжительность : 1 ч. 32 м.
Вид битрейта : Постоянный
Каналы : 2 канала
Частота : 48,0 КГц
Битовая глубина : 16 бит
Язык : English
Default : Нет
Forced : Нет
Текст
Идентификатор : 5
Формат : UTF-8
Идентификатор кодека : S_TEXT/UTF8
Идентификатор кодека/Информация : UTF-8 Plain Text
Язык : English
Default : Нет
Forced : Нет
Меню
00:00:00.000 : en:00:00:00.000
00:06:15.375 : en:00:06:15.375
00:11:17.218 : en:00:11:17.218
00:17:45.147 : en:00:17:45.147
00:24:20.417 : en:00:24:20.417
00:29:42.990 : en:00:29:42.990
00:34:26.856 : en:00:34:26.856
00:40:22.128 : en:00:40:22.128
00:46:47.013 : en:00:46:47.013
00:52:58.550 : en:00:52:58.550
00:57:14.181 : en:00:57:14.181
01:03:08.702 : en:01:03:08.702
01:09:31.959 : en:01:09:31.959
01:13:29.196 : en:01:13:29.196
01:19:21.298 : en:01:19:21.298
01:26:21.385 : en:01:26:21.385
01:30:43.396 : en:01:30:43.396

Скриншоты




Показать сообщения:    

Текущее время: 04-Дек 02:56

Часовой пояс: UTC + 3


Вы не можете начинать темы
Вы не можете отвечать на сообщения
Вы не можете редактировать свои сообщения
Вы не можете удалять свои сообщения
Вы не можете голосовать в опросах
Вы не можете прикреплять файлы к сообщениям
Вы не можете скачивать файлы