А в это время / Meanwhile (Хэл Хартли / Hal Hartley) [2011 г., США, драма, WEB-DL 720p] Original Eng + Sub Rus


 

[Цитировать]

А в это время / Meanwhile- Год выпуска: 2011
Страна: США
Жанр: драма
Продолжительность: 00:58:08
Перевод: Субтитры
Оригинальная аудиодорожка: Английская
Cубтитры: Русские (mevoxem под редакцией alex-kin)-Режиссер: Хэл Хартли / Hal Hartley
В ролях: Д.Дж. Мендел, Даниэль Мейер, Паллави Састри, Челси Кроу, Михо Никайдо, Пенелопа Лэгос, Лиза Хикман, Джеймс Рич, Ходжи Фортуна, Джордж Фистер-Описание:
Джо Фултон — человек, который может все: и устранить засор в раковине, и найти иностранных инвесторов для строительства. Он занимается интернет-рекламой и пишет роман. А еще он неплохо играет на ударных. Но успех почему-то обходит его стороной. Расставшись с подружкой в Бруклине, Джо пешком отправляется на Манхэттен и на мосту встречает странную женщину. День идет своим чередом, Джо решает свои и чужие проблемы и вдруг слышит по радио, что кто-то спрыгнул с Бруклинского моста. Но виноват ли в этом Фултон?- | IMDb | Сэмпл-Качество: WEB-DL 720p (brento)
Контейнер: MKV
Видео: AVC, 1278x720 (1.78:1), 23.976 fps, 4182 kbps
Аудио: Английский AС3, 5.1, 48 kHz, 384 kbps
Формат субтитров: softsub (SRT)

Скриншоты


MI

General
Unique ID : 205677786627927873058908340484766156244 (0x9ABC19CF17304D6CB9AECF748CDFC5D4)
Complete name : Meanwhile 2011 720p WEB-DL H.264-brento.mkv
Format : Matroska
Format version : Version 2
File size : 1.86 GiB
Duration : 58mn 8s
Overall bit rate : 4 569 Kbps
Movie name : Meanwhile / А в это время (2011) – RuTracker
Encoded date : UTC 2014-05-06 20:25:43
Writing application : mkvmerge v6.1.0 ('Old Devil') built on Mar 2 2013 14:32:37
Writing library : libebml v1.3.0 + libmatroska v1.4.0
Attachment : Yes
Video
ID : 1
Format : AVC
Format/Info : Advanced Video Codec
Format profile : High@L3.1
Format settings, CABAC : No
Format settings, ReFrames : 2 frames
Codec ID : V_MPEG4/ISO/AVC
Duration : 58mn 8s
Bit rate : 4 094 Kbps
Width : 1 278 pixels
Height : 720 pixels
Display aspect ratio : 16:9
Frame rate mode : Constant
Frame rate : 23.976 fps
Color space : YUV
Chroma subsampling : 4:2:0
Bit depth : 8 bits
Scan type : Progressive
Bits/(Pixel*Frame) : 0.186
Stream size : 1.66 GiB (90%)
Title : Meanwhile 2011 720p WEB-DL AAC2.0 H.264-brento
Language : English
Default : Yes
Forced : No
Color primaries : BT.709
Transfer characteristics : BT.709
Matrix coefficients : BT.709
Audio
ID : 2
Format : AC-3
Format/Info : Audio Coding 3
Mode extension : CM (complete main)
Format settings, Endianness : Big
Codec ID : A_AC3
Duration : 58mn 8s
Bit rate mode : Constant
Bit rate : 384 Kbps
Channel(s) : 6 channels
Channel positions : Front: L C R, Side: L R, LFE
Sampling rate : 48.0 KHz
Bit depth : 16 bits
Compression mode : Lossy
Stream size : 160 MiB (8%)
Language : English
Default : No
Forced : No
Text
ID : 3
Format : UTF-8
Codec ID : S_TEXT/UTF8
Codec ID/Info : UTF-8 Plain Text
Title : mevoxem
Language : Russian
Default : Yes
Forced : No
Menu
00:00:00.000 : en:Opening
00:02:22.000 : en:Leaving Wendy
00:04:12.000 : en:More Minutes
00:07:53.000 : en:Girl on Bridge
00:11:00.000 : en:Bank
00:16:28.000 : en:Lost Delivery Man
00:23:19.000 : en:You Owe Me Money
00:27:04.000 : en:Brother
00:34:05.000 : en:To The Bar
00:40:42.000 : en:Nathalie
00:48:49.000 : en:Back in Business
00:55:24.000 : en:Excuse Me Miss



Показать сообщения:    

Текущее время: 09-Дек 14:40

Часовой пояс: UTC + 3


Вы не можете начинать темы
Вы не можете отвечать на сообщения
Вы не можете редактировать свои сообщения
Вы не можете удалять свои сообщения
Вы не можете голосовать в опросах
Вы не можете прикреплять файлы к сообщениям
Вы не можете скачивать файлы