Откровение любви / Ai no mukidashi / Love Exposure (Сион Соно / Sion Sono) [2008, Япония, боевик, драма, мелодрама, комедия, BDRip 720p] VO (Дубовицкая) + Original Jap + Sub Rus, Eng


 

[Цитировать]

Откровение любви / Ai no mukidashi / Love Exposure Страна: Япония
Жанр: боевик, драма, мелодрама, комедия
Год выпуска: 2008
Продолжительность: 03:56:35
Перевод: Одноголосый закадровый Трина Дубовицкая
Cубтитры: русские (LINDA), английские (вариант 1), английские (вариант 2)
Оригинальная аудиодорожка: японский
Режиссер: Сион Соно / Sion Sono
В ролях: Такахиро Нисидзима, Хикари Мицусима, Сакура Андо, Ацуро Ватабэ, Макико Ватанабэ, Ютака Симидзу, Хироюки Оноуэ, Тасуку Нагаока, Сё Хиросава, Юко Генкаку
Описание:
О чём мечтает подросток в самом расцвете сил?… Конечно же, о любви! О чём думает подросток у которого папа, после смерти мамы, стал священником, и теперь, бедному парню нужно признаваться в своих грехах, которых нет?
- Тип релиза: BDRip 720p (рип от leonard@TayTO)
Контейнер: MKV
Видео: AVC (x264), 1280x720 (16:9) at 23,976 fps, 7936 Кbps, 0.359 bpp
Аудио 1: AC3; 640 Kbps; CBR; 6 ch; 48 khz | VO - Трина Дубовицкая |
Аудио 2: AC3; 640 Kbps; CBR; 6 ch; 48 khz | Японский |
Формат субтитров: softsub (SRT)

Скриншоты || x264 Info || MediaInfo || NotesNotes: Дорожка №1 получена наложением выделенного голоса на DTS

MediaInfo

Общее
Уникальный идентификатор                 : 248442534723222503828078080819245877737 (0xBAE84AAD650609E4B15A326B90BC09E9)
Полное имя                               : Откровение любви.2008.L1.720p.BluRay.x264-TayTO.mkv
Формат                                   : Matroska
Версия формата                           : Version 4 / Version 2
Размер файла                             : 15,5 Гбайт
Продолжительность                        : 3 ч. 56 м.
Общий поток                              : 9403 Кбит/сек
Название фильма                          : Love Exposure [720p] [2008] VO
Дата кодирования                         : UTC 2014-05-07 02:27:18
Программа кодирования                    : mkvmerge v6.9.1 ('Blue Panther') 32bit built on Apr 18 2014 18:15:44
Библиотека кодирования                   : libebml v1.3.0 + libmatroska v1.4.1
Видео
Идентификатор                            : 1
Формат                                   : AVC
Формат/Информация                        : Advanced Video Codec
Профиль формата                          : High@L4.1
Параметр CABAC формата                   : Да
Параметр ReFrames формата                : 9 кадров
Идентификатор кодека                     : V_MPEG4/ISO/AVC
Продолжительность                        : 3 ч. 56 м.
Битрейт                                  : 7936 Кбит/сек
Ширина                                   : 1280 пикселей
Высота                                   : 720 пикселей
Соотношение сторон                       : 16:9
Режим частоты кадров                     : Постоянный
Частота кадров                           : 23,976 кадра/сек
Цветовое пространство                    : YUV
Субдискретизация насыщенности            : 4:2:0
Битовая глубина                          : 8 бит
Тип развёртки                            : Прогрессивная
Бит/(Пиксели*Кадры)                      : 0.359
Размер потока                            : 13,1 Гбайт (84%)
Заголовок                                : profile.php?mode=viewprofile&u=22488948
Библиотека кодирования                   : x264 core 125 r2208 d9d2288
Настройки программы                      : cabac=1 / ref=9 / deblock=1:-3:-3 / analyse=0x3:0x113 / me=tesa / subme=11 / psy=1 / psy_rd=1.00:0.00 / mixed_ref=1 / me_range=16 / chroma_me=1 / trellis=2 / 8x8dct=1 / cqm=0 / deadzone=21,11 / fast_pskip=0 / chroma_qp_offset=-2 / threads=12 / lookahead_threads=2 / sliced_threads=0 / nr=0 / decimate=0 / interlaced=0 / bluray_compat=0 / constrained_intra=0 / bframes=9 / b_pyramid=2 / b_adapt=2 / b_bias=0 / direct=3 / weightb=1 / open_gop=0 / weightp=2 / keyint=250 / keyint_min=23 / scenecut=40 / intra_refresh=0 / rc=crf / mbtree=0 / crf=17.5 / qcomp=0.58 / qpmin=0 / qpmax=69 / qpstep=4 / ip_ratio=1.40 / pb_ratio=1.30 / aq=1:0.65
Язык                                     : English
Default                                  : Да
Forced                                   : Нет
Коэффициенты матрицы                     : BT.709
Аудио #1
Идентификатор                            : 2
Формат                                   : AC-3
Формат/Информация                        : Audio Coding 3
Расширение режима                        : CM (complete main)
Параметр Endianness формата              : Big
Идентификатор кодека                     : A_AC3
Продолжительность                        : 3 ч. 56 м.
Вид битрейта                             : Постоянный
Битрейт                                  : 640 Кбит/сек
Каналы                                   : 6 каналов
Расположение каналов                     : Front: L C R, Side: L R, LFE
Частота                                  : 48,0 КГц
Битовая глубина                          : 16 бит
Метод сжатия                             : С потерями
Размер потока                            : 1,06 Гбайт (7%)
Заголовок                                : VO [Трина Дубовицкая]
Язык                                     : Russian
Default                                  : Да
Forced                                   : Нет
Аудио #2
Идентификатор                            : 3
Формат                                   : AC-3
Формат/Информация                        : Audio Coding 3
Расширение режима                        : CM (complete main)
Параметр Endianness формата              : Big
Идентификатор кодека                     : A_AC3
Продолжительность                        : 3 ч. 56 м.
Вид битрейта                             : Постоянный
Битрейт                                  : 640 Кбит/сек
Каналы                                   : 6 каналов
Расположение каналов                     : Front: L C R, Side: L R, LFE
Частота                                  : 48,0 КГц
Битовая глубина                          : 16 бит
Метод сжатия                             : С потерями
Размер потока                            : 1,06 Гбайт (7%)
Язык                                     : Japanese
Default                                  : Нет
Forced                                   : Нет
Текст #1
Идентификатор                            : 4
Формат                                   : UTF-8
Идентификатор кодека                     : S_TEXT/UTF8
Идентификатор кодека/Информация          : UTF-8 Plain Text
Заголовок                                : #1
Язык                                     : English
Default                                  : Нет
Forced                                   : Нет
Текст #2
Идентификатор                            : 5
Формат                                   : UTF-8
Идентификатор кодека                     : S_TEXT/UTF8
Идентификатор кодека/Информация          : UTF-8 Plain Text
Заголовок                                : #2
Язык                                     : English
Default                                  : Нет
Forced                                   : Нет
Текст #3
Идентификатор                            : 6
Формат                                   : UTF-8
Идентификатор кодека                     : S_TEXT/UTF8
Идентификатор кодека/Информация          : UTF-8 Plain Text
Заголовок                                : [LINDA]
Язык                                     : Russian
Default                                  : Нет
Forced                                   : Нет
Меню
00:00:00.000                             : en:00:00:00.000
00:00:35.452                             : en:00:00:35.452
00:19:37.259                             : en:00:19:37.259
00:40:09.324                             : en:00:40:09.324
00:58:22.624                             : en:00:58:22.624
00:58:34.970                             : en:00:58:34.970
01:07:37.136                             : en:01:07:37.136
01:29:25.902                             : en:01:29:25.902
01:46:28.132                             : en:01:46:28.132
02:01:05.675                             : en:02:01:05.675
02:25:23.006                             : en:02:25:23.006
02:40:18.400                             : en:02:40:18.400
02:58:12.557                             : en:02:58:12.557
03:16:12.719                             : en:03:16:12.719
03:29:48.367                             : en:03:29:48.367
03:52:27.767                             : en:03:52:27.767
x264 Infox264 [info]: frame I:2926 Avg QP:16.47 size:125978
x264 [info]: frame P:68355 Avg QP:17.94 size: 67719
x264 [info]: frame B:269069 Avg QP:19.94 size: 34977
x264 [info]: consecutive B-frames: 1.9% 2.1% 6.9% 10.0% 12.2% 57.1% 6.3% 1.3% 1.5% 0.9%



Показать сообщения:    

Текущее время: 09-Дек 22:26

Часовой пояс: UTC + 3


Вы не можете начинать темы
Вы не можете отвечать на сообщения
Вы не можете редактировать свои сообщения
Вы не можете удалять свои сообщения
Вы не можете голосовать в опросах
Вы не можете прикреплять файлы к сообщениям
Вы не можете скачивать файлы