Причастие / Nattvardsgästerna / Winter Light (Ингмар Бергман / Ingmar Bergman) [1963, Швеция, драма, BDRip 720p] DVO (с издания Арт-Синема) + MVO (Видеоимпульс) + VO (Валерий Казаков) + Original Swe + Sub Rus, Eng


 

[Цитировать]

Причастие / Nattvardsgästerna / Winter Light
Страна: Швеция
Жанр: драма
Год выпуска: 1963
Продолжительность: 01:21:33
Перевод: Профессиональный (двухголосый закадровый) с издания Арт-Синема
Перевод: Профессиональный (многоголосый закадровый) Видеоимпульс
Перевод: Одноголосый закадровый Валерий Казаков
Cубтитры: русские, английские
Оригинальная аудиодорожка: шведский
Режиссер: Ингмар Бергман / Ingmar Bergman
В ролях: Ингрид Тулин, Гуннар Бьёрнстранд, Гуннила Линдблюм, Макс фон Сюдов, Аллен Эдвалл, Кольбьёрн Кнудсен, Улоф Тунберг, Эльза Эббесен
Описание: Философская новелла рассказывает о священнике, утратившем Бога и мучительно пытающемся вновь обрести Его и вместе с Ним мир в своей душе.
Второй фильм так называемой "трилогии веры" ("Сквозь темное стекло", "Причастие", "Молчание").
Сэмпл: http://sendfile.su/975521
Тип релиза: BDRip 720p - CtrlHD
Контейнер: MKV
Видео: H264, 960x720, 23.976fps, 13325kbps, 0.787bit/pixel
Аудио: Russian, AC3, 48kHz, 2ch, 192kbps
Аудио: Russian, AC3, 48kHz, 2ch, 192kbps
Аудио: Russian, AC3, 48kHz, 2ch, 128kbps
Аудио: Swedish, DTS, 48kHz, 2ch, 768kbps

MediaInfo

Общее
Уникальный идентификатор : 221000927733559636402166662044962246666 (0xA6433AFE8159431EA87D3545BB0BD00A)
Полное имя : G:\Фильмы\Winter Light 1963 720p.mkv
Формат : Matroska
Версия формата : Version 4 / Version 2
Размер файла : 8,32 Гбайт
Продолжительность : 1 ч. 21 м.
Общий поток : 14,6 Мбит/сек
Дата кодирования : UTC 2014-05-04 13:26:35
Программа кодирования : mkvmerge v6.9.1 ('Blue Panther') 64bit built on Apr 18 2014 18:23:38
Библиотека кодирования : libebml v1.3.0 + libmatroska v1.4.1
Видео
Идентификатор : 1
Формат : AVC
Формат/Информация : Advanced Video Codec
Профиль формата : High@L4.1
Параметр CABAC формата : Да
Параметр ReFrames формата : 12 кадров
Идентификатор кодека : V_MPEG4/ISO/AVC
Продолжительность : 1 ч. 21 м.
Битрейт : 13,0 Мбит/сек
Ширина : 960 пикселей
Высота : 720 пикселей
Соотношение сторон : 4:3
Режим частоты кадров : Постоянный
Частота кадров : 23,976 кадра/сек
Цветовое пространство : YUV
Субдискретизация насыщенности : 4:2:0
Битовая глубина : 8 бит
Тип развёртки : Прогрессивная
Бит/(Пиксели*Кадры) : 0.786
Размер потока : 7,43 Гбайт (89%)
Заголовок : Nattvardsgästerna 1963
Библиотека кодирования : x264 core 142 r2409+42 04be48a tMod [8-bit@all X86_64]
Настройки программы : cabac=1 / ref=12 / deblock=1:-3:-3 / analyse=0x3:0x133 / me=umh / subme=10 / psy=1 / fade_compensate=0.00 / psy_rd=1.10:0.00 / mixed_ref=1 / me_range=16 / chroma_me=1 / trellis=2 / 8x8dct=1 / cqm=0 / deadzone=21,11 / fast_pskip=1 / chroma_qp_offset=-2 / threads=6 / lookahead_threads=1 / sliced_threads=0 / nr=0 / decimate=0 / interlaced=0 / bluray_compat=0 / constrained_intra=0 / fgo=0 / bframes=11 / b_pyramid=2 / b_adapt=2 / b_bias=0 / direct=3 / weightb=1 / open_gop=0 / weightp=2 / keyint=250 / keyint_min=23 / scenecut=40 / intra_refresh=0 / rc_lookahead=60 / rc=crf / mbtree=1 / crf=19.5000 / qcomp=0.70 / qpmin=0:0:0 / qpmax=69:69:69 / qpstep=4 / vbv_maxrate=20000 / vbv_bufsize=15000 / crf_max=0.0 / nal_hrd=none / filler=0 / ip_ratio=1.30 / aq=1:0.50 / aq-sensitivity=10.00 / aq-factor=1.00:1.00:1.00 / aq2=1:0.50 / aq2-sensitivity=8.00 / aq2-factor=1.00:1.00:1.00 / aq3=1:[0.50:0.50]:[0.50:0.50]:[0.50:0.50]:[0.50:0.50] / aq3-sensitivity=8.00 / aq3-factor=[1.00:1.00]:[1.00:1.00]:[1.00:1.00] / aq3-boundary=205:56:9
Язык : English
Default : Да
Forced : Нет
Аудио #1
Идентификатор : 2
Формат : AC-3
Формат/Информация : Audio Coding 3
Расширение режима : CM (complete main)
Параметр Endianness формата : Big
Идентификатор кодека : A_AC3
Продолжительность : 1 ч. 21 м.
Вид битрейта : Постоянный
Битрейт : 192 Кбит/сек
Каналы : 2 канала
Расположение каналов : Front: L R
Частота : 48,0 КГц
Битовая глубина : 16 бит
Метод сжатия : С потерями
Размер потока : 112 Мбайт (1%)
Заголовок : DVO - Арт-Синема
Язык : Russian
Default : Да
Forced : Нет
Аудио #2
Идентификатор : 3
Формат : AC-3
Формат/Информация : Audio Coding 3
Расширение режима : CM (complete main)
Параметр Endianness формата : Big
Идентификатор кодека : A_AC3
Продолжительность : 1 ч. 21 м.
Вид битрейта : Постоянный
Битрейт : 192 Кбит/сек
Каналы : 2 канала
Расположение каналов : Front: L R
Частота : 48,0 КГц
Битовая глубина : 16 бит
Метод сжатия : С потерями
Размер потока : 112 Мбайт (1%)
Заголовок : MVO - Видеоимпульс
Язык : Russian
Default : Нет
Forced : Нет
Аудио #3
Идентификатор : 4
Формат : AC-3
Формат/Информация : Audio Coding 3
Расширение режима : CM (complete main)
Параметр Endianness формата : Big
Идентификатор кодека : A_AC3
Продолжительность : 1 ч. 21 м.
Вид битрейта : Постоянный
Битрейт : 128 Кбит/сек
Каналы : 2 канала
Расположение каналов : Front: L R
Частота : 48,0 КГц
Битовая глубина : 16 бит
Метод сжатия : С потерями
Размер потока : 74,7 Мбайт (1%)
Заголовок : VO - Казаков
Язык : Russian
Default : Нет
Forced : Нет
Аудио #4
Идентификатор : 5
Формат : DTS
Формат/Информация : Digital Theater Systems
Режим : 16
Параметр Endianness формата : Big
Идентификатор кодека : A_DTS
Продолжительность : 1 ч. 21 м.
Вид битрейта : Постоянный
Битрейт : 768 Кбит/сек
Каналы : 2 канала
Расположение каналов : Front: L R
Частота : 48,0 КГц
Битовая глубина : 16 бит
Метод сжатия : С потерями
Размер потока : 448 Мбайт (5%)
Язык : Swedish
Default : Нет
Forced : Нет
Текст #1
Идентификатор : 6
Формат : UTF-8
Идентификатор кодека : S_TEXT/UTF8
Идентификатор кодека/Информация : UTF-8 Plain Text
Язык : Russian
Default : Нет
Forced : Нет
Текст #2
Идентификатор : 7
Формат : UTF-8
Идентификатор кодека : S_TEXT/UTF8
Идентификатор кодека/Информация : UTF-8 Plain Text
Язык : English
Default : Нет
Forced : Нет
Меню
00:00:00.000 : en:00:00:00.000
00:09:13.511 : en:00:09:13.511
00:14:39.796 : en:00:14:39.796
00:20:48.205 : en:00:20:48.205
00:28:25.537 : en:00:28:25.537
00:36:10.710 : en:00:36:10.710
00:43:00.036 : en:00:43:00.036
00:47:26.635 : en:00:47:26.635
00:52:13.714 : en:00:52:13.714
01:04:54.557 : en:01:04:54.557
01:08:57.967 : en:01:08:57.967
01:15:45.082 : en:01:15:45.082

Скриншоты




Показать сообщения:    

Текущее время: 10-Дек 23:31

Часовой пояс: UTC + 3


Вы не можете начинать темы
Вы не можете отвечать на сообщения
Вы не можете редактировать свои сообщения
Вы не можете удалять свои сообщения
Вы не можете голосовать в опросах
Вы не можете прикреплять файлы к сообщениям
Вы не можете скачивать файлы