Трудно быть Богом (Алексей Герман) [2014, Россия, фантастика, драма, WEB-DL 720p]


 

[Цитировать]

ТРУДНО БЫТЬ БОГОМ
Страна: Россия
Жанр: фантастика, драма
Год выпуска: 2014
Продолжительность: 2:57:00
Перевод: Не требуется
Cубтитры: нет
Оригинальная аудиодорожка: русский
Режиссёр: Алексей Герман
В ролях: Леонид Ярмольник, Юрий Цурило, Наталья Мотева, Александр Чутко, Евгений Герчаков, Александр Ильин, Пётр Меркурьев, Олег Ботин, Константин Быков, Юрий Думчев
Описание: На планете, погружённой в глухое Средневековье, работают наблюдатели-земляне, которые пытаются бережно подправлять ход событий, не нарушая логическое развитие истории. Главный герой, дон Румата Эсторский, осознавая свою задачу сохранения нейтралитета, тем не менее, не выдерживает, когда в Арканаре (одном из городов планеты) захватывает власть «чёрное братство», свергнувшее господство «серых», столь же отвратительных, но не столь кровавых. Румата берётся за меч, чтобы покарать злодеев, и тем самым нарушает все правила и закономерности, вмешиваясь в чужой исторический процесс.
Качество видео: WEB-DL 720p
Формат видео: MKV
Видео: HD-AVC, 16:9, 24,000 кадра/сек, 4605 Кбит/сек
Аудио: Russian, AC-3, 48,0 КГц, 384 Кбит/сек, 6 каналов

MediaInfo

Общее
Уникальный идентификатор : 205361073396419158552923780732784636446 (0x9A7F1AA41B45466D9964810A955A721E)
Полное имя : /Volumes/Media HD/Фильмы/Trudno.Byti.Bogom.2013.O.WEB-DL.720p.mkv
Формат : Matroska
Версия формата : Version 4 / Version 2
Размер файла : 5,70 Гбайт
Продолжительность : 2 ч. 57 м.
Общий поток : 4605 Кбит/сек
Дата кодирования : UTC 2014-05-02 14:59:17
Программа кодирования : mkvmerge v6.5.0 ('Isn't she lovely') built on Oct 20 2013 12:50:05
Библиотека кодирования : libebml v1.3.0 + libmatroska v1.4.1
Видео
Идентификатор : 1
Формат : AVC
Формат/Информация : Advanced Video Codec
Профиль формата : High@L3.1
Параметр CABAC формата : Нет
Параметр ReFrames формата : 2 кадра
Идентификатор кодека : V_MPEG4/ISO/AVC
Продолжительность : 2 ч. 57 м.
Битрейт : 4130 Кбит/сек
Ширина : 1280 пикселей
Высота : 720 пикселей
Соотношение сторон : 16:9
Режим частоты кадров : Постоянный
Частота кадров : 24,000 кадра/сек
Цветовое пространство : YUV
Субдискретизация насыщенности : 4:2:0
Битовая глубина : 8 бит
Тип развёртки : Прогрессивная
Бит/(Пиксели*Кадры) : 0.187
Размер потока : 5,11 Гбайт (90%)
Язык : English
Default : Да
Forced : Нет
Основные цвета : BT.709
Характеристики трансфера : BT.709
Коэффициенты матрицы : BT.709
Аудио
Идентификатор : 2
Формат : AC-3
Формат/Информация : Audio Coding 3
Расширение режима : CM (complete main)
Параметр Endianness формата : Big
Идентификатор кодека : A_AC3
Продолжительность : 2 ч. 57 м.
Вид битрейта : Постоянный
Битрейт : 384 Кбит/сек
Каналы : 6 каналов
Расположение каналов : Front: L C R, Side: L R, LFE
Частота : 48,0 КГц
Битовая глубина : 16 бит
Метод сжатия : С потерями
Размер потока : 487 Мбайт (8%)
Язык : Russian
Default : Да
Forced : Нет
Меню
00:00:00.000 : en:Глава 1
00:11:52.000 : en:Глава 2
00:19:04.000 : en:Глава 3
00:26:11.000 : en:Глава 4
00:33:22.000 : en:Глава 5
00:40:26.000 : en:Глава 6
00:47:26.000 : en:Глава 7
00:54:26.000 : en:Глава 8
01:01:26.000 : en:Глава 9
01:08:27.000 : en:Глава 10
01:15:29.000 : en:Глава 11
01:22:31.000 : en:Глава 12
01:29:35.000 : en:Глава 13
01:36:37.000 : en:Глава 14
01:43:40.000 : en:Глава 15
01:50:45.000 : en:Глава 16
01:57:47.000 : en:Глава 17
02:04:50.000 : en:Глава 18
02:11:52.000 : en:Глава 19
02:18:58.000 : en:Глава 20
02:26:00.000 : en:Глава 21
02:33:02.000 : en:Глава 22
02:40:04.000 : en:Глава 23
02:47:06.000 : en:Глава 24

Скриншоты

СКАЧАЛ САМ - ДАЙ СКАЧАТЬ ДРУГОМУ! ОСТАВАЙТЕСЬ НА РАЗДАЧЕ, ГОСПОДА!



Показать сообщения:    

Текущее время: 04-Дек 15:18

Часовой пояс: UTC + 3


Вы не можете начинать темы
Вы не можете отвечать на сообщения
Вы не можете редактировать свои сообщения
Вы не можете удалять свои сообщения
Вы не можете голосовать в опросах
Вы не можете прикреплять файлы к сообщениям
Вы не можете скачивать файлы