Двухполосное шоссе / Two-Lane Blacktop (Монте Хеллман / Monte Hellman) [1971, США, драма, роад-муви, BDRip 1080p] [Criterion #414] MVO (Омикрон) + Sub Rus, Eng + Original Eng


 

[Цитировать]

Двухполосное шоссе / Two-Lane Blacktop- Страна: США
Студия: Universal Pictures, Michael Laughlin Enterprises
Жанр: драма, роад-муви
Год выпуска: 1971
Продолжительность: 01:42:37-Перевод: Профессиональный (многоголосый закадровый) студия "Омикрон"
Cубтитры: русские (rz5), английские
Оригинальная аудиодорожка: английский-Режиссер: Монте Хеллман / Monte Hellman
В ролях: Джеймс Тейлор, Уоррен, Лори Бёрд, Дэннис Уилсон, Дэвид Дрэйк, Ричард Рут, Руди Вёрлицер, Жаклин Хеллман, Билл Келлер, Гарри Дин Стэнтон, Дон Сэмюэлс, Чарльз Мур
Описание: Водитель и Механик путешествуют по стране на своей форсированой Шеви 55, попутно зарабатывая деньги на драг рейсинге. Чуть спустя к ним присоединяется девушка-хиппи — тоже бродяга. Позже они встречают водителя Джи-Ти-О (GTO), после недолгих разговоров они решают вступить в гонку по стране, победителю которой достанется автомобиль проигравшего…-Сэмпл: http://www.sendspace.com/file/v22975-Тип релиза: BDRip 1080p (decibeL)
Контейнер: MKV
Видео: MPEG-4 AVC / 12000 kbps / 1920 x 814 / 23.976 fps / 2.35:1
Аудио 1: Russian / DTS 5.1 / 48 kHz / 1509 kbps / 24 bit (MVO, студия "Омикрон")
Аудио 2: English / DTS 5.1 / 48 kHz / 1509 kbps / 24 bit
Аудио 3: English / AC3 1.0 / 48 kHz / 192 kbps (Commentary with Director Monte Hellman and Filmmaker Allison Anders)
Аудио 4: English / AC3 1.0 / 48 kHz / 192 kbps (Commentary with Screenwriter Rudy Wurlitzer and Film Professor and Author David N. Meyer)
Формат субтитров: softsub (SRT)
Навигация по главам: есть- -

MediaInfo

Общее
Уникальный идентификатор                 : 225684524197792937170206924610451055900 (0xA9C94220D944F55F8DEF36AADD40A51C)
Полное имя                               : F:\Criterion Collection\Двухполосное шоссе\Two-Lane Blacktop.1971.Criterion Collection.BD-Rip.1080p-decibeL.mkv
Формат                                   : Matroska
Версия формата                           : Version 4 / Version 2
Размер файла                             : 11,0 Гбайт
Продолжительность                        : 1 ч. 42 м.
Общий поток                              : 15,4 Мбит/сек
Название фильма                          : Two-Lane.Blacktop.1971.Criterion.1080p.BluRay.DTS.x264-decibeL
Дата кодирования                         : UTC 2014-04-29 19:06:38
Программа кодирования                    : mkvmerge v6.6.0 ('The Edge Of The In Between') built on Dec  1 2013 17:55:00
Библиотека кодирования                   : libebml v1.3.0 + libmatroska v1.4.1
Видео
Идентификатор                            : 1
Формат                                   : AVC
Формат/Информация                        : Advanced Video Codec
Профиль формата                          : High@L4.1
Параметр CABAC формата                   : Да
Параметр ReFrames формата                : 5 кадров
Идентификатор кодека                     : V_MPEG4/ISO/AVC
Продолжительность                        : 1 ч. 42 м.
Битрейт                                  : 12,0 Мбит/сек
Ширина                                   : 1920 пикселей
Высота                                   : 814 пикселей
Соотношение сторон                       : 2,35:1
Режим частоты кадров                     : Постоянный
Частота кадров                           : 23,976 кадра/сек
Цветовое пространство                    : YUV
Субдискретизация насыщенности            : 4:2:0
Битовая глубина                          : 8 бит
Тип развёртки                            : Прогрессивная
Бит/(Пиксели*Кадры)                      : 0.320
Размер потока                            : 8,38 Гбайт (76%)
Заголовок                                : Two-Lane Blacktop
Библиотека кодирования                   : x264 core 130 r2273 b3065e6
Настройки программы                      : cabac=1 / ref=5 / deblock=1:-3:-3 / analyse=0x3:0x113 / me=umh / subme=10 / psy=1 / psy_rd=1.10:0.00 / mixed_ref=1 / me_range=64 / chroma_me=1 / trellis=2 / 8x8dct=1 / cqm=0 / deadzone=21,11 / fast_pskip=0 / chroma_qp_offset=0 / threads=3 / lookahead_threads=1 / sliced_threads=0 / nr=0 / decimate=1 / interlaced=0 / bluray_compat=0 / constrained_intra=0 / bframes=7 / b_pyramid=2 / b_adapt=2 / b_bias=0 / direct=3 / weightb=1 / open_gop=0 / weightp=2 / keyint=240 / keyint_min=23 / scenecut=40 / intra_refresh=0 / rc_lookahead=90 / rc=2pass / mbtree=1 / bitrate=12000 / ratetol=1.0 / qcomp=0.70 / qpmin=10 / qpmax=51 / qpstep=4 / cplxblur=20.0 / qblur=0.5 / vbv_maxrate=38000 / vbv_bufsize=30000 / nal_hrd=none / ip_ratio=1.40 / aq=1:0.90
Язык                                     : English
Default                                  : Да
Forced                                   : Нет
Аудио #1
Идентификатор                            : 2
Формат                                   : DTS
Формат/Информация                        : Digital Theater Systems
Режим                                    : 16
Параметр Endianness формата              : Big
Идентификатор кодека                     : A_DTS
Продолжительность                        : 1 ч. 42 м.
Вид битрейта                             : Постоянный
Битрейт                                  : 1509 Кбит/сек
Каналы                                   : 6 каналов
Расположение каналов                     : Front: L C R, Side: L R, LFE
Частота                                  : 48,0 КГц
Битовая глубина                          : 24 бит
Метод сжатия                             : С потерями
Размер потока                            : 1,08 Гбайт (10%)
Заголовок                                : MVO, Омикрон [DTS 5.1 @ 1509 kbps]
Язык                                     : Russian
Default                                  : Да
Forced                                   : Нет
Аудио #2
Идентификатор                            : 3
Формат                                   : DTS
Формат/Информация                        : Digital Theater Systems
Режим                                    : 16
Параметр Endianness формата              : Big
Идентификатор кодека                     : A_DTS
Продолжительность                        : 1 ч. 42 м.
Вид битрейта                             : Постоянный
Битрейт                                  : 1509 Кбит/сек
Каналы                                   : 6 каналов
Расположение каналов                     : Front: L C R, Side: L R, LFE
Частота                                  : 48,0 КГц
Битовая глубина                          : 24 бит
Метод сжатия                             : С потерями
Размер потока                            : 1,08 Гбайт (10%)
Заголовок                                : [DTS 5.1 @ 1509 kbps]
Язык                                     : English
Default                                  : Нет
Forced                                   : Нет
Аудио #3
Идентификатор                            : 4
Формат                                   : AC-3
Формат/Информация                        : Audio Coding 3
Расширение режима                        : CM (complete main)
Параметр Endianness формата              : Big
Идентификатор кодека                     : A_AC3
Продолжительность                        : 1 ч. 42 м.
Вид битрейта                             : Постоянный
Битрейт                                  : 192 Кбит/сек
Каналы                                   : 1 канал
Расположение каналов                     : Front: C
Частота                                  : 48,0 КГц
Битовая глубина                          : 16 бит
Метод сжатия                             : С потерями
Размер потока                            : 141 Мбайт (1%)
Заголовок                                : Commentary with Director Monte Hellman and Filmmaker Allison Anders [AC3 1.0 @ 192 kbps]
Язык                                     : English
Default                                  : Нет
Forced                                   : Нет
Аудио #4
Идентификатор                            : 5
Формат                                   : AC-3
Формат/Информация                        : Audio Coding 3
Расширение режима                        : CM (complete main)
Параметр Endianness формата              : Big
Идентификатор кодека                     : A_AC3
Продолжительность                        : 1 ч. 42 м.
Вид битрейта                             : Постоянный
Битрейт                                  : 192 Кбит/сек
Каналы                                   : 1 канал
Расположение каналов                     : Front: C
Частота                                  : 48,0 КГц
Битовая глубина                          : 16 бит
Метод сжатия                             : С потерями
Размер потока                            : 141 Мбайт (1%)
Заголовок                                : Commentary with Screenwriter Rudy Wurlitzer and Film Professor and Author David N. Meyer [AC3 1.0 @ 192 kbps]
Язык                                     : English
Default                                  : Нет
Forced                                   : Нет
Текст #1
Идентификатор                            : 6
Формат                                   : UTF-8
Идентификатор кодека                     : S_TEXT/UTF8
Идентификатор кодека/Информация          : UTF-8 Plain Text
Заголовок                                : rz5
Язык                                     : Russian
Default                                  : Нет
Forced                                   : Нет
Текст #2
Идентификатор                            : 7
Формат                                   : UTF-8
Идентификатор кодека                     : S_TEXT/UTF8
Идентификатор кодека/Информация          : UTF-8 Plain Text
Заголовок                                : SDH
Язык                                     : English
Default                                  : Нет
Forced                                   : Нет
Меню
00:00:00.000                             : en:Street Racers
00:04:05.411                             : en:Driver and Mechanic
00:08:01.856                             : en:The Girl
00:14:43.340                             : en:Three Yards
00:23:26.988                             : en:GTO
00:28:31.376                             : en:For Pinks
00:38:59.503                             : en:"Keep a Hunger On"
00:44:53.482                             : en:Up, Down, or Sideways
00:55:28.533                             : en:Boswell, OK
01:07:21.037                             : en:"No Dancing"
01:11:51.181                             : en:Too Much Speed
01:18:14.439                             : en:Lakeland Raceway
01:29:46.798                             : en:No Good
01:39:15.741                             : en:Two-Lane Blacktop

Скриншоты


Доп. информацияserin писал(а):* Задействовано 4 актера.
* Русская дорожка получена наложением чистого голоса (на оригинальную дорожку от издания Eureka).
* Перевод и озвучивание осуществлено в рамках сервиса "Озвучивание". Спонсоры: vadel.
-



Показать сообщения:    

Текущее время: 03-Дек 18:40

Часовой пояс: UTC + 3


Вы не можете начинать темы
Вы не можете отвечать на сообщения
Вы не можете редактировать свои сообщения
Вы не можете удалять свои сообщения
Вы не можете голосовать в опросах
Вы не можете прикреплять файлы к сообщениям
Вы не можете скачивать файлы