Хиросима, моя любовь / Hiroshima, mon amour (Ален Рене / Alain Resnais) [1959, Франция, Япония, драма, мелодрама, BDRip 720p] 2x DVO + Sub Rus, Eng + Original Fre


 

[Цитировать]

Хиросима, моя любовь / Hiroshima, mon amour
Страна: Франция, Япония
Жанр: драма, мелодрама
Год выпуска: 1959
Продолжительность: 01:30:03
Перевод: Профессиональный (двухголосый закадровый) | R5
Перевод: Профессиональный (двухголосый закадровый) | "Культура"
Cубтитры: русские, английские
Оригинальная аудиодорожка: французский-Режиссер: Ален Рене / Alain Resnais
В ролях: Эмманюэль Рива, Эйдзи Окада, Стелла Даллас, Пьер Барбо, Бернар Фрессон
Описание: Фильм погружает зрителя в сложный мир ощущений, основанный на сюжетной линии короткой любви французской киноактрисы (Рива) из города Невер, ославленной в конце войны «немецкой подстилкой» и женатого японского архитектора (Окада), хранящего память о ядерной катастрофе в послевоенной Хиросиме. На каждого из них давит груз прошлого, с которым приходится жить каждый час.
IMDb || КиноПоиск-Тип релиза: BDRip 720p [EA]
Контейнер: MKV
Видео: H.264/AVC, 988x720 at 24 fps, 7690 kbps
Аудио#1: Russian: 48 kHz, AC3, 2.0 ch, 192 kbps |Двухголосый закадровый, R5|
Аудио#2: Russian: 48 kHz, AC3, 1.0 ch, 96 kbps |Двухголосый закадровый, "Культура"|
Аудио#3: French: 48 kHz, FLAC, 1.0 ch, 270 kbps
Формат субтитров: softsub (SRT)
Сэмпл

MediaInfox264

x264 [info]: frame I: 704 Avg QP:15.42 size: 98297
x264 [info]: frame P: 24160 Avg QP:17.43 size: 56282
x264 [info]: frame B:104808 Avg QP:18.61 size: 35906
x264 [info]: consecutive B-frames: 1.0% 0.9% 2.9% 11.4% 17.1% 50.3% 9.4% 1.6% 3.3% 0.8% 1.3%
Encoded 129672 frames, 9.809 fps, 7687.87 kb/s
General
Unique ID : 243415532712942379341257449827405424629 (0xB7202057B14D39478D8DFE7E431067F5)
Complete name : L:\Rutracker\Хиросима, моя любовь\Hiroshima Mon Amour.1959.720p-EA. rutracker.mkv
Format : Matroska
Format version : Version 2
File size : 5.19 GiB
Duration : 1h 30mn
Overall bit rate mode : Variable
Overall bit rate : 8 248 Kbps
Movie name : Release for RuTracker
Encoded date : UTC 2014-04-15 12:29:30
Writing application : mkvmerge v5.0.1 ('Es ist Sommer') built on Nov 6 2011 16:23:40
Writing library : libebml v1.2.2 + libmatroska v1.3.0
Video
ID : 1
Format : AVC
Format/Info : Advanced Video Codec
Format profile : High@L4.1
Format settings, CABAC : Yes
Format settings, ReFrames : 11 frames
Codec ID : V_MPEG4/ISO/AVC
Duration : 1h 30mn
Width : 988 pixels
Height : 720 pixels
Display aspect ratio : 1.372
Frame rate : 24.000 fps
Color space : YUV
Chroma subsampling : 4:2:0
Bit depth : 8 bits
Scan type : Progressive
Title : -EA
Writing library : x264 core 142 r2389+41 02cb608 tMod [8-bit@all X86_64]
Encoding settings : cabac=1 / ref=11 / deblock=1:-3:-3 / analyse=0x3:0x113 / me=umh / subme=10 / psy=1 / fade_compensate=0.00 / psy_rd=1.10:0.00 / mixed_ref=1 / me_range=32 / chroma_me=0 / trellis=2 / 8x8dct=1 / cqm=0 / deadzone=21,11 / fast_pskip=0 / chroma_qp_offset=-2 / threads=12 / lookahead_threads=3 / sliced_threads=0 / nr=0 / decimate=0 / interlaced=0 / bluray_compat=0 / constrained_intra=0 / fgo=0 / bframes=10 / b_pyramid=2 / b_adapt=2 / b_bias=0 / direct=3 / weightb=1 / open_gop=0 / weightp=2 / keyint=240 / keyint_min=23 / scenecut=40 / intra_refresh=0 / rc_lookahead=50 / rc=crf / mbtree=0 / crf=17.4000 / qcomp=0.75 / qpmin=0:0:0 / qpmax=69:69:69 / qpstep=4 / vbv_maxrate=62500 / vbv_bufsize=78125 / crf_max=0.0 / nal_hrd=none / filler=0 / ip_ratio=1.30 / pb_ratio=1.10 / aq=1:0.65 / aq-sensitivity=10.00 / aq-factor=1.00:1.00:1.00 / aq2=0 / aq3=0
Language : French
Default : Yes
Forced : No
Color primaries : BT.709-5, BT.1361, IEC 61966-2-4, SMPTE RP177
Transfer characteristics : BT.709-5, BT.1361
Matrix coefficients : BT.709-5, BT.1361, IEC 61966-2-4 709, SMPTE RP177
Audio #1
ID : 2
Format : AC-3
Format/Info : Audio Coding 3
Mode extension : CM (complete main)
Codec ID : A_AC3
Duration : 1h 30mn
Bit rate mode : Constant
Bit rate : 192 Kbps
Channel(s) : 2 channels
Channel positions : Front: L R
Sampling rate : 48.0 KHz
Bit depth : 16 bits
Compression mode : Lossy
Stream size : 124 MiB (2%)
Title : dvo, R5
Language : Russian
Default : Yes
Forced : No
Audio #2
ID : 3
Format : AC-3
Format/Info : Audio Coding 3
Mode extension : CM (complete main)
Codec ID : A_AC3
Duration : 1h 30mn
Bit rate mode : Constant
Bit rate : 96.0 Kbps
Channel(s) : 1 channel
Channel positions : Front: C
Sampling rate : 48.0 KHz
Bit depth : 16 bits
Compression mode : Lossy
Stream size : 61.8 MiB (1%)
Title : dvo, Культура
Language : Russian
Default : No
Forced : No
Audio #3
ID : 4
Format : FLAC
Format/Info : Free Lossless Audio Codec
Codec ID : A_FLAC
Duration : 1h 30mn
Bit rate mode : Variable
Channel(s) : 1 channel
Sampling rate : 48.0 KHz
Bit depth : 16 bits
Writing library : libFLAC 1.2.1 (UTC 2007-09-17)
Language : French
Default : No
Forced : No
Text #1
ID : 5
Format : UTF-8
Codec ID : S_TEXT/UTF8
Codec ID/Info : UTF-8 Plain Text
Title : R5
Language : Russian
Default : No
Forced : No
Text #2
ID : 6
Format : UTF-8
Codec ID : S_TEXT/UTF8
Codec ID/Info : UTF-8 Plain Text
Title : ThePooh & Co.
Language : Russian
Default : No
Forced : No
Text #3
ID : 7
Format : UTF-8
Codec ID : S_TEXT/UTF8
Codec ID/Info : UTF-8 Plain Text
Language : English
Default : No
Forced : No
Menu
00:00:00.000 : en:00:00:00.000
00:02:16.375 : en:00:02:16.375
00:12:40.917 : en:00:12:40.917
00:32:54.667 : en:00:32:54.667
00:46:44.000 : en:00:46:44.000
00:58:20.250 : en:00:58:20.250
01:10:31.375 : en:01:10:31.375

Скриншоты

Source vs EA



Показать сообщения:    

Текущее время: 10-Дек 13:53

Часовой пояс: UTC + 3


Вы не можете начинать темы
Вы не можете отвечать на сообщения
Вы не можете редактировать свои сообщения
Вы не можете удалять свои сообщения
Вы не можете голосовать в опросах
Вы не можете прикреплять файлы к сообщениям
Вы не можете скачивать файлы