Причастие / Nattvardsgästerna / Winter Light (Ингмар Бергман / Ingmar Bergman) [1963, Швеция, драма, BDRemux 1080p] DVO + MVO + VO + Sub (Rus, Eng) + Original Swe


 

[Цитировать]

Причастие / Nattvardsgästerna / Winter Light
Страна: Швеция
Жанр: драма
Год выпуска: 1963
Продолжительность: 01:21:33
Перевод: Профессиональный (двухголосый закадровый) | с издания Арт-Синема
Перевод: Профессиональный (многоголосый закадровый) | Видеоимпульс
Перевод: Одноголосый закадровый | Валерий Казаков
Cубтитры: русские, английские
Оригинальная аудиодорожка: шведский-Режиссер: Ингмар Бергман / Ingmar Bergman
В ролях: Ингрид Тулин, Гуннар Бьёрнстранд, Гуннила Линдблюм, Макс фон Сюдов, Аллен Эдвалл, Кольбьёрн Кнудсен, Улоф Тунберг, Эльза Эббесен
Описание: Философская новелла рассказывает о священнике, утратившем Бога и мучительно пытающемся вновь обрести Его и вместе с Ним мир в своей душе.
Второй фильм так называемой "трилогии веры" ("Сквозь темное стекло", "Причастие", "Молчание").
IMDb || КиноПоиск-Тип релиза: BDRemux 1080p [Nattvardsgästerna 1963 1080p Blu-ray AVC DTS-HD MA 2.0-iFPD]
Контейнер: MKV
Видео: MPEG-4 AVC Video, 1920x1080 at 23.976 fps, 30292 kbps
Аудио#1: Russian: 48 kHz, AC3, 2.0 ch, 192 kbps |Двухголосый закадровый|
Аудио#2: Russian: 48 kHz, AC3, 2.0 ch, 192 kbps |Многоголосый закадровый|
Аудио#3: Russian: 48 kHz, AC3, 2.0 ch, 128 kbps |Одноголосый закадровый|
Аудио#4: Swedish: 48 kHz, DTS-HD MA, 2.0 ch, 904 kbps (DTS Core: 2.0 / 48 kHz / 768 kbps / 16-bit)
Формат субтитров: softsub (SRT)
Сэмпл

MediaInfo

General
Unique ID : 224852435261430601740252064491054060616 (0xA92900F9F1962A238AD5FDB8EA745448)
Complete name : L:\Rutracker\Причастие\Winter Light.1963.BDRemux. rutracker.mkv
Format : Matroska
Format version : Version 2
File size : 18.1 GiB
Duration : 1h 21mn
Overall bit rate mode : Variable
Overall bit rate : 31.7 Mbps
Movie name : Release for RuTracker
Encoded date : UTC 2014-04-11 03:35:44
Writing application : mkvmerge v5.0.1 ('Es ist Sommer') built on Nov 6 2011 16:23:40
Writing library : libebml v1.2.2 + libmatroska v1.3.0
Video
ID : 1
Format : AVC
Format/Info : Advanced Video Codec
Format profile : High@L4.1
Format settings, CABAC : Yes
Format settings, ReFrames : 4 frames
Codec ID : V_MPEG4/ISO/AVC
Duration : 1h 21mn
Bit rate mode : Variable
Bit rate : 29.8 Mbps
Maximum bit rate : 36.0 Mbps
Width : 1 920 pixels
Height : 1 080 pixels
Display aspect ratio : 16:9
Frame rate : 23.976 fps
Standard : NTSC
Color space : YUV
Chroma subsampling : 4:2:0
Bit depth : 8 bits
Scan type : Progressive
Bits/(Pixel*Frame) : 0.599
Stream size : 17.0 GiB (94%)
Title : Winter Light.1963.BDRemux. rutracker
Language : Swedish
Default : Yes
Forced : No
Color primaries : BT.709-5, BT.1361, IEC 61966-2-4, SMPTE RP177
Transfer characteristics : BT.709-5, BT.1361
Matrix coefficients : BT.709-5, BT.1361, IEC 61966-2-4 709, SMPTE RP177
Audio #1
ID : 2
Format : AC-3
Format/Info : Audio Coding 3
Mode extension : CM (complete main)
Codec ID : A_AC3
Duration : 1h 21mn
Bit rate mode : Constant
Bit rate : 192 Kbps
Channel(s) : 2 channels
Channel positions : Front: L R
Sampling rate : 48.0 KHz
Bit depth : 16 bits
Compression mode : Lossy
Stream size : 112 MiB (1%)
Title : dvo, Арт-Синема
Language : Russian
Default : Yes
Forced : No
Audio #2
ID : 3
Format : AC-3
Format/Info : Audio Coding 3
Mode extension : CM (complete main)
Codec ID : A_AC3
Duration : 1h 21mn
Bit rate mode : Constant
Bit rate : 192 Kbps
Channel(s) : 2 channels
Channel positions : Front: L R
Sampling rate : 48.0 KHz
Bit depth : 16 bits
Compression mode : Lossy
Stream size : 112 MiB (1%)
Title : mvo, Видеоимпульс
Language : Russian
Default : No
Forced : No
Audio #3
ID : 4
Format : AC-3
Format/Info : Audio Coding 3
Mode extension : CM (complete main)
Codec ID : A_AC3
Duration : 1h 21mn
Bit rate mode : Constant
Bit rate : 128 Kbps
Channel(s) : 2 channels
Channel positions : Front: L R
Sampling rate : 48.0 KHz
Bit depth : 16 bits
Compression mode : Lossy
Stream size : 74.7 MiB (0%)
Title : vo, В.Казаков
Language : Russian
Default : No
Forced : No
Audio #4
ID : 5
Format : DTS
Format/Info : Digital Theater Systems
Format profile : MA / Core
Codec ID : A_DTS
Duration : 1h 21mn
Bit rate mode : Variable
Bit rate : 803 Kbps / 755 Kbps
Channel(s) : 2 channels
Channel positions : Front: L R
Sampling rate : 48.0 KHz
Bit depth : 16 bits
Compression mode : Lossless / Lossy
Language : Swedish
Default : No
Forced : No
Text #1
ID : 6
Format : UTF-8
Codec ID : S_TEXT/UTF8
Codec ID/Info : UTF-8 Plain Text
Language : Russian
Default : No
Forced : No
Text #2
ID : 7
Format : UTF-8
Codec ID : S_TEXT/UTF8
Codec ID/Info : UTF-8 Plain Text
Language : English
Default : No
Forced : No
Menu
00:00:00.000 : en:Opening Credits
00:01:20.300 : en:The Holy Communion
00:12:39.100 : en:Under The Weather
00:16:05.634 : en:The Perssons
00:21:22.301 : en:"You Have A Lot To Learn"
00:27:08.467 : en:Marta's Letter
00:36:41.934 : en:A Spider God
00:42:57.267 : en:"Now I'm Free"
00:47:23.700 : en:River's Edge
00:52:11.700 : en:Medicinal Request
00:55:25.856 : en:"Idiotic Trivialities"
01:05:47.099 : en:"You did what you could"
01:09:59.003 : en:Winter Light
01:10:49.867 : en:God's Silence
01:15:39.534 : en:An Attentive Listener

Скриншоты




Показать сообщения:    

Текущее время: 03-Дек 14:38

Часовой пояс: UTC + 3


Вы не можете начинать темы
Вы не можете отвечать на сообщения
Вы не можете редактировать свои сообщения
Вы не можете удалять свои сообщения
Вы не можете голосовать в опросах
Вы не можете прикреплять файлы к сообщениям
Вы не можете скачивать файлы