Венера в мехах / La Vénus à la fourrure / Venus in fur (Роман Полански / Roman Polanski) [2013, Франция, Польша, Драма, BDRip 720p] VO (Doctor Joker / kon2011) + Original (Fre)


 

[Цитировать]

Венера в мехах / La Vénus à la fourrure / Venus in fur
Страна: Франция, Польша
Жанр: Драма
Год выпуска: 2013
Продолжительность: 01:36:27
Перевод: Одноголосый закадровый (Doctor Joker по переводу kon2011)
Cубтитры: немецкие, испанские
Оригинальная аудиодорожка: Французский
Режиссер: Роман Полански / Roman Polanski
В ролях: Эмманюэль Сенье, Матье Амальрик
Описание: Новый фильм Романа Полански, на этот раз мастер решил по-своему интерпретировать классику садо-мазо, книгу Леопольда фон Захер-Мазоха. Получилась ироничная комедия (интеллектуальная, диалоговая) с хлещущим кнутом по спине эро-подтекстом. Известный драматург Тома Новачек решил переделать роман Захер-Мазоха в пьесу, да вот незадача, нет актрисы, которая сыграет Ванду, главную героиню, что подчиняет себе в извращённой манере дворянина Северина Фон Куземского. "Тук-тук"... На пробы в самый последний момент приходит женщина по имени (sic!) Ванда (её сыграла жена режиссёра, Эмманюэль Сенье) и вот тогда вечер уже перестаёт быть томным. Пробы начинаются, Венера накинула на себя меха, одному лишь пантеону Богов известно, куда заведёт Ванду и Тома ночь...
Доп. информация: Английские субтитры не добавлял, машинный перевод. Когда появятся (и появятся ли) нормальные - неизвестно. Русских субтитров в открытом доступе не встречал. Для переживающих - ненорматив в озвучке ОТСУТСТВУЕТ
Спонсор - будулайроманов. Работа со звуком - Переводман.
Релиз подготовлен при участии
IMDb || Кинопоиск || Сэмпл
Тип релиза: BDRip 720p (исходник: 1080p.BluRay.AVC.DTS-HD.MA.5.1-HQF)
Контейнер: MKV
Видео: AVC; 1280x536 (16:9); 4 808 Kbps; 23,976 fps
Аудио 1: Russian; DTS; 1509 Kbps; CBR; 6 ch; 24 bit | Doctor Joker
Аудио 2: French; DTS; 1509 Kbps; CBR; 6 ch; 24 bit
Субтитры: German, Spanish

MediaInfo

General
Unique ID                                : 240691465417158453970761773452309768504 (0xB5137D749B7301B98D5C8021F0472938)
Complete name                            : C:\Downloads\VenusInFur2013DJ.mkv
Format                                   : Matroska
Format version                           : Version 4 / Version 2
File size                                : 5.38 GiB
Duration                                 : 1h 36mn
Overall bit rate                         : 7 985 Kbps
Encoded date                             : UTC 2014-04-10 18:22:37
Writing application                      : mkvmerge v6.8.0 ('Theme for Great Cities') 64bit built on Mar  2 2014 21:34:26
Writing library                          : libebml v1.3.0 + libmatroska v1.4.1
Video
ID                                       : 1
Format                                   : AVC
Format/Info                              : Advanced Video Codec
Format profile                           : High@L4.1
Format settings, CABAC                   : Yes
Format settings, ReFrames                : 12 frames
Codec ID                                 : V_MPEG4/ISO/AVC
Duration                                 : 1h 36mn
Bit rate                                 : 4 808 Kbps
Width                                    : 1 280 pixels
Height                                   : 536 pixels
Display aspect ratio                     : 2.40:1
Frame rate mode                          : Constant
Frame rate                               : 23.976 fps
Color space                              : YUV
Chroma subsampling                       : 4:2:0
Bit depth                                : 8 bits
Scan type                                : Progressive
Bits/(Pixel*Frame)                       : 0.292
Stream size                              : 3.24 GiB (60%)
Title                                    : Venus In Fur (2013)
Language                                 : English
Default                                  : Yes
Forced                                   : No
Audio #1
ID                                       : 2
Format                                   : DTS
Format/Info                              : Digital Theater Systems
Mode                                     : 16
Format settings, Endianness              : Big
Codec ID                                 : A_DTS
Duration                                 : 1h 36mn
Bit rate mode                            : Constant
Bit rate                                 : 1 509 Kbps
Channel(s)                               : 6 channels
Channel positions                        : Front: L C R, Side: L R, LFE
Sampling rate                            : 48.0 KHz
Bit depth                                : 24 bits
Compression mode                         : Lossy
Stream size                              : 1.02 GiB (19%)
Title                                    : Одноголосый закадровый | Doctor Joker по переводу kon2011
Language                                 : Russian
Default                                  : Yes
Forced                                   : Yes
Audio #2
ID                                       : 3
Format                                   : DTS
Format/Info                              : Digital Theater Systems
Mode                                     : 16
Format settings, Endianness              : Big
Codec ID                                 : A_DTS
Duration                                 : 1h 36mn
Bit rate mode                            : Constant
Bit rate                                 : 1 509 Kbps
Channel(s)                               : 6 channels
Channel positions                        : Front: L C R, Side: L R, LFE
Sampling rate                            : 48.0 KHz
Bit depth                                : 24 bits
Compression mode                         : Lossy
Stream size                              : 1.02 GiB (19%)
Title                                    : Original | French
Language                                 : French
Default                                  : No
Forced                                   : No
Text #1
ID                                       : 4
Format                                   : UTF-8
Codec ID                                 : S_TEXT/UTF8
Codec ID/Info                            : UTF-8 Plain Text
Title                                    : German
Language                                 : German
Default                                  : No
Forced                                   : No
Text #2
ID                                       : 5
Format                                   : UTF-8
Codec ID                                 : S_TEXT/UTF8
Codec ID/Info                            : UTF-8 Plain Text
Title                                    : Spanish
Language                                 : Spanish
Default                                  : No
Forced                                   : No
Menu
00:00:00.000                             : en:00:00:00.000
00:05:23.990                             : en:00:05:23.990
00:12:43.888                             : en:00:12:43.888
00:15:54.829                             : en:00:15:54.829
00:24:05.569                             : en:00:24:05.569
00:27:10.420                             : en:00:27:10.420
00:29:47.703                             : en:00:29:47.703
00:35:27.959                             : en:00:35:27.959
00:40:31.346                             : en:00:40:31.346
00:44:28.791                             : en:00:44:28.791
00:50:40.454                             : en:00:50:40.454
00:54:05.325                             : en:00:54:05.325
00:59:09.963                             : en:00:59:09.963
01:06:54.886                             : en:01:06:54.886
01:11:29.285                             : en:01:11:29.285
01:17:59.383                             : en:01:17:59.383

Скриншоты




Показать сообщения:    

Текущее время: 11-Дек 05:22

Часовой пояс: UTC + 3


Вы не можете начинать темы
Вы не можете отвечать на сообщения
Вы не можете редактировать свои сообщения
Вы не можете удалять свои сообщения
Вы не можете голосовать в опросах
Вы не можете прикреплять файлы к сообщениям
Вы не можете скачивать файлы