Мелинда и Мелинда / Melinda and Melinda (Вуди Аллен / Woody Allen) [2004, США, драма, мелодрама, комедия, WEB-DL 1080p] 3x MVO + DVO + Original Eng + Sub Rus, Eng


 

[Цитировать]

Мелинда и Мелинда / Melinda and Melinda Страна: США
Студия: Fox Searchlight Pictures, Gravier Productions, LF Hungary Film Rights Exploitation
Жанр: драма, мелодрама, комедия
Год выпуска: 2004
Продолжительность: 01:39:12
Перевод 1: Профессиональный (многоголосый закадровый) 1
Перевод 2: Профессиональный (многоголосый закадровый) 2
Перевод 3: Профессиональный (многоголосый закадровый) Первый канал
Перевод 4: Профессиональный (двухголосый закадровый) Tycoon
Cубтитры: русские, английские
Оригинальная аудиодорожка: Английский
Режиссер: Вуди Аллен / Woody Allen
В ролях: Чиветел Эджиофор, Уилл Феррелл, Джонни Ли Миллер, Рада Митчел, Аманда Пит, Клоэ Севиньи, Уоллес Шоун, Дэвид Аарон Бэйкер, Ария Барейкис, Джош Бролин
Описание: За столиком ресторана друзья обсуждают, чего больше в жизни — комического или трагического. Автор успешных комедий убежден, что люди ищут повод для смеха, чтобы убежать от боли — его друг верит в силу трагедии. В качестве примера каждый развивает историю, основанную на анекдоте о незваном госте — молодой женщине Мелинде, чья жизнь пошла под откос.
В драматической версии мы видим переживания Мелинды после тяжелого развода; комедийная версия событий развивается в спальном районе, где Мелинда вносит сумятицу во время соседской вечеринки своей попыткой самоубийства. Здесь фигурирует масса комических персонажей из художественной богемы, включая безработного актера, заигрывающего с Мелиндой, и его жену-режиссера, более всего озабоченную охмурением банкира для спонсирования нового проекта «Сонаты о кастрации».

Качество видео:WEB-DL 1080p
Формат видео: MKV
Видео кодек: H264
Аудио кодек: AC3
Видео: 1918x1080 (1.77:1), 23,976 fps, ~5070 kbps avg, 0.102 bit/pixel
Аудио 1: 48 kHz, AC3 Dolby Digital, 2/0 (L,R) ch, ~192 kbps - Многоголоска 1
Аудио 2: 48 kHz, AC3 Dolby Digital, 2/0 (L,R) ch, ~192 kbps - Многоголоска 2
Аудио 3: 48 kHz, AC3 Dolby Digital, 2/0 (L,R) ch, ~192 kbps - Первый канал
Аудио 4: 48 kHz, AC3 Dolby Digital, 2/0 (L,R) ch, ~192 kbps - Tycoon
Аудио 5: 48 kHz, AC3 Dolby Digital, 2/0 (L,R) ch, ~192 kbps - Оригинал

MediaInfo

Complete name : Melinda.i.Melinda.1080p.WEBDL.2004.mkv
Format : Matroska
Format version : Version 4 / Version 2
File size : 4.26 GiB
Duration : 1h 39mn
Overall bit rate : 6 142 Kbps
Encoded date : UTC 2014-04-04 06:58:46
Writing application : mkvmerge v6.5.0 ('Isn't she lovely') built on Oct 20 2013 12:50:05
Writing library : libebml v1.3.0 + libmatroska v1.4.1
Video
ID : 1
Format : AVC
Format/Info : Advanced Video Codec
Format profile : High@L4.0
Format settings, CABAC : Yes
Format settings, ReFrames : 4 frames
Codec ID : V_MPEG4/ISO/AVC
Duration : 1h 39mn
Bit rate : 5 060 Kbps
Width : 1 918 pixels
Height : 1 080 pixels
Display aspect ratio : 16:9
Frame rate mode : Constant
Frame rate : 23.976 fps
Color space : YUV
Chroma subsampling : 4:2:0
Bit depth : 8 bits
Scan type : Progressive
Bits/(Pixel*Frame) : 0.102
Stream size : 3.51 GiB (82%)
Language : English
Default : Yes
Forced : No
Color primaries : BT.709
Transfer characteristics : BT.709
Matrix coefficients : BT.709
Audio #1
ID : 2
Format : AC-3
Format/Info : Audio Coding 3
Mode extension : CM (complete main)
Format settings, Endianness : Big
Codec ID : A_AC3
Duration : 1h 39mn
Bit rate mode : Constant
Bit rate : 192 Kbps
Channel(s) : 2 channels
Channel positions : Front: L R
Sampling rate : 48.0 KHz
Bit depth : 16 bits
Compression mode : Lossy
Stream size : 136 MiB (3%)
Title : MVO1
Language : Russian
Default : Yes
Forced : No
Audio #2
ID : 3
Format : AC-3
Format/Info : Audio Coding 3
Mode extension : CM (complete main)
Format settings, Endianness : Big
Codec ID : A_AC3
Duration : 1h 39mn
Bit rate mode : Constant
Bit rate : 192 Kbps
Channel(s) : 2 channels
Channel positions : Front: L R
Sampling rate : 48.0 KHz
Bit depth : 16 bits
Compression mode : Lossy
Stream size : 136 MiB (3%)
Title : MVO2
Language : Russian
Default : No
Forced : No
Audio #3
ID : 4
Format : AC-3
Format/Info : Audio Coding 3
Mode extension : CM (complete main)
Format settings, Endianness : Big
Codec ID : A_AC3
Duration : 1h 39mn
Bit rate mode : Constant
Bit rate : 192 Kbps
Channel(s) : 2 channels
Channel positions : Front: L R
Sampling rate : 48.0 KHz
Bit depth : 16 bits
Compression mode : Lossy
Stream size : 136 MiB (3%)
Title : MVO Pervyj kanal
Language : Russian
Default : No
Forced : No
Audio #4
ID : 5
Format : AC-3
Format/Info : Audio Coding 3
Mode extension : CM (complete main)
Format settings, Endianness : Big
Codec ID : A_AC3
Duration : 1h 39mn
Bit rate mode : Constant
Bit rate : 192 Kbps
Channel(s) : 2 channels
Channel positions : Front: L R
Sampling rate : 48.0 KHz
Bit depth : 16 bits
Compression mode : Lossy
Stream size : 136 MiB (3%)
Title : DVO Tycoon
Language : Russian
Default : No
Forced : No
Audio #5
ID : 6
Format : AC-3
Format/Info : Audio Coding 3
Mode extension : CM (complete main)
Format settings, Endianness : Big
Codec ID : A_AC3
Duration : 1h 39mn
Bit rate mode : Constant
Bit rate : 192 Kbps
Channel(s) : 2 channels
Channel positions : Front: L R
Sampling rate : 48.0 KHz
Bit depth : 16 bits
Compression mode : Lossy
Stream size : 136 MiB (3%)
Title : Org
Language : English
Default : No
Forced : No
Text #1
ID : 7
Format : UTF-8
Codec ID : S_TEXT/UTF8
Codec ID/Info : UTF-8 Plain Text
Language : Russian
Default : No
Forced : No
Text #2
ID : 8
Format : UTF-8
Codec ID : S_TEXT/UTF8
Codec ID/Info : UTF-8 Plain Text
Language : English
Default : No
Forced : No
Menu
00:00:00.000 : en:Main Titles
00:01:39.000 : en:Comedy or Tragedy?
00:04:05.000 : en:Unannounced
00:09:39.000 : en:Sad Story
00:13:05.000 : en:Doctor's Wife
00:18:55.000 : en:Communicating
00:21:04.000 : en:Playing Around
00:24:58.000 : en:Matchmaking
00:27:30.000 : en:A Day at the Races
00:35:16.000 : en:Big Date
00:41:14.000 : en:Piano Player
00:47:37.000 : en:The Hamptons
00:50:58.000 : en:Bloodsucker
00:54:47.000 : en:Premeditated
01:00:26.000 : en:Bartok
01:03:22.000 : en:Soul Searching
01:07:43.000 : en:Poor Melinda
01:09:10.000 : en:Problem Solved
01:13:38.000 : en:Consumed with Jealousy
01:19:57.000 : en:Paranoid
01:23:00.000 : en:A Big Mess
01:27:38.000 : en:Halloween
01:32:37.000 : en:Spies
01:34:55.000 : en:To Good Times/End Titles

Скриншоты




Показать сообщения:    

Текущее время: 08-Дек 07:01

Часовой пояс: UTC + 3


Вы не можете начинать темы
Вы не можете отвечать на сообщения
Вы не можете редактировать свои сообщения
Вы не можете удалять свои сообщения
Вы не можете голосовать в опросах
Вы не можете прикреплять файлы к сообщениям
Вы не можете скачивать файлы