Великая красота / La grande bellezza / The Great Beauty (Паоло Соррентино / Paolo Sorrentino) [2013, Италия, Франция, драма, BDRip 1080p] [Criterion Collection] MVO + Sub (Rus, Eng) + Original Ita


 

[Цитировать]

Великая красота / La grande bellezza / The Great Beauty
Страна: Италия, Франция
Жанр: драма
Год выпуска: 2013
Продолжительность: 02:21:29
Перевод: Профессиональный (многоголосый закадровый)
Cубтитры: русские, английские
Оригинальная аудиодорожка: итальянский-Режиссер: Паоло Соррентино / Paolo Sorrentino
В ролях: Тони Сервилло, Карло Вердоне, Сабрина Ферилли, Карло Буччироссо, Яя Форте, Памела Виллорези, Галатея Ранци, Франко Грациози, Джорджо Пазотти, Массимо Пополицио
Описание: Рим – вечный город, сверкающий неуловимой самобытной красотой. Соблазнительный и равнодушный, в то же самое время Рим бурлит и вязнет в суете, светская жизнь ни на секунду ни затихает в этом центре «гламура». Но светскую жизнь Рима невозможно представить без Джепа Гамбарделлы, писателя и журналиста, такого же средоточия западной культуры и древнего очарования, как и его родной город. Когда-то в молодости он написал свой единственный роман, а затем занялся журналистикой. Жизнь Гамбарделлы - череда встреч и эксцентричных вечеринок, на которых он является главным действующим лицом. Циничный, разочарованный и больной, он отстранённо наблюдает кризис общества, которое, кажется, превратило людей в чудовища...
IMDb || КиноПоиск-Тип релиза: BDRip 1080p [TayTO]
Контейнер: MKV
Видео: H.264/AVC, 1920x820 at 23.976 fps, 17 Mbps
Аудио#1: Russian: 48 kHz, AC3, 2.0 ch, 192 kbps |Многоголосый закадровый, R5|
Аудио#2: English: 48 kHz, DTS, 5.1 ch, 1510 kbps
Формат субтитров: softsub (SRT)
Сэмпл

MediaInfox264

x264 [info]: frame I:1376 Avg QP:16.80 size:190713
x264 [info]: frame P:38185 Avg QP:17.59 size:113640
x264 [info]: frame B:163973 Avg QP:18.88 size: 84489
x264 [info]: consecutive B-frames: 1.1% 1.1% 3.9% 7.9% 14.1% 62.2% 7.1% 2.6%
General
Unique ID : 195392771511787245536810669793446321294 (0x92FF4769BC21F2F7BE87FB7E2001DC8E)
Complete name : L:\Rutracker\Великая красота\La grande bellezza.2013.Criterion.1080p-TayTO. rutracker.mkv
Format : Matroska
Format version : Version 2
File size : 18.9 GiB
Duration : 2h 21mn
Overall bit rate : 19.1 Mbps
Movie name : Release for RuTracker
Encoded date : UTC 2014-04-03 22:55:34
Writing application : mkvmerge v5.0.1 ('Es ist Sommer') built on Nov 6 2011 16:23:40
Writing library : libebml v1.2.2 + libmatroska v1.3.0
Video
ID : 1
Format : AVC
Format/Info : Advanced Video Codec
Format profile : High@L4.1
Format settings, CABAC : Yes
Format settings, ReFrames : 5 frames
Codec ID : V_MPEG4/ISO/AVC
Duration : 2h 21mn
Bit rate : 17.0 Mbps
Width : 1 920 pixels
Height : 820 pixels
Display aspect ratio : 2.35:1
Frame rate : 23.976 fps
Color space : YUV
Chroma subsampling : 4:2:0
Bit depth : 8 bits
Scan type : Progressive
Bits/(Pixel*Frame) : 0.451
Stream size : 16.8 GiB (89%)
Title : La grande bellezza.2013.Criterion.1080p-TayTO. rutracker
Writing library : x264 core 142 r2409+42 04be48a tMod [8-bit@all X86_64]
Encoding settings : cabac=1 / ref=5 / deblock=1:-3:-3 / analyse=0x3:0x133 / me=umh / subme=11 / psy=1 / fade_compensate=0.00 / psy_rd=1.05:0.00 / mixed_ref=1 / me_range=48 / chroma_me=1 / trellis=2 / 8x8dct=1 / cqm=0 / deadzone=21,11 / fast_pskip=0 / chroma_qp_offset=-2 / threads=12 / lookahead_threads=2 / sliced_threads=0 / nr=0 / decimate=1 / interlaced=0 / bluray_compat=0 / constrained_intra=0 / fgo=0 / bframes=7 / b_pyramid=2 / b_adapt=2 / b_bias=0 / direct=3 / weightb=1 / open_gop=0 / weightp=2 / keyint=250 / keyint_min=23 / scenecut=40 / intra_refresh=0 / rc=crf / mbtree=0 / crf=17.8000 / qcomp=0.65 / qpmin=0:0:0 / qpmax=69:69:69 / qpstep=4 / ip_ratio=1.20 / pb_ratio=1.15 / aq=1:0.65 / aq-sensitivity=10.00 / aq-factor=1.00:1.00:1.00 / aq2=0 / aq3=0
Language : English
Default : Yes
Forced : No
Matrix coefficients : BT.709-5, BT.1361, IEC 61966-2-4 709, SMPTE RP177
Audio #1
ID : 2
Format : AC-3
Format/Info : Audio Coding 3
Mode extension : CM (complete main)
Codec ID : A_AC3
Duration : 2h 21mn
Bit rate mode : Constant
Bit rate : 192 Kbps
Channel(s) : 2 channels
Channel positions : Front: L R
Sampling rate : 48.0 KHz
Bit depth : 16 bits
Compression mode : Lossy
Stream size : 194 MiB (1%)
Language : Russian
Default : Yes
Forced : No
Audio #2
ID : 3
Format : DTS
Format/Info : Digital Theater Systems
Codec ID : A_DTS
Duration : 2h 21mn
Bit rate mode : Constant
Bit rate : 1 510 Kbps
Channel(s) : 6 channels
Channel positions : Front: L C R, Side: L R, LFE
Sampling rate : 48.0 KHz
Bit depth : 24 bits
Compression mode : Lossy
Stream size : 1.49 GiB (8%)
Language : Italian
Default : No
Forced : No
Text #1
ID : 4
Format : UTF-8
Codec ID : S_TEXT/UTF8
Codec ID/Info : UTF-8 Plain Text
Language : Russian
Default : No
Forced : No
Text #2
ID : 5
Format : UTF-8
Codec ID : S_TEXT/UTF8
Codec ID/Info : UTF-8 Plain Text
Language : English
Default : No
Forced : No
Menu
00:00:00.000 : en:Opening Logos
00:01:21.664 : en:"Our Journey Is Entirely Imaginary"
00:05:17.900 : en:Four on the Floor, with Mariachi
00:09:43.124 : en:"Happy Birthday, Jep! Happy Birthday, Rome"
00:14:37.710 : en:Early Morning Return
00:20:08.290 : en:Performance Art
00:21:39.298 : en:An Interview with the Artist
00:25:23.855 : en:"I Find Romans Unbearable"
00:31:15.707 : en:Returns
00:34:22.143 : en:A Visit from Elisa's Husband
00:41:36.202 : en:"Have You Seen My Daughter"
00:43:01.370 : en:Writing Projects
00:46:51.809 : en:A Catalog of Lies and Fragility
00:54:18.880 : en:A Strip Club
01:00:32.837 : en:"Seven Hundred Euros"
01:03:49.659 : en:Dinner with Ramona
01:10:52.623 : en:Party with Knives
01:15:27.981 : en:Carmelina's Work
01:18:21.905 : en:The Princesses' Keys
01:23:22.580 : en:Rules for a Funeral
01:26:25.889 : en:The Funeral
01:29:53.679 : en:"It Was Nice Not Making Love"
01:33:48.789 : en:Romano's Decision
01:38:37.703 : en:A Happy Couple
01:40:46.665 : en:Party at Jep's
01:44:21.338 : en:Photo Exhibition
01:46:26.046 : en:Cardinal Bellucci
01:49:32.190 : en:An Arrest, Then Lunch with Dadina
01:52:20.400 : en:Audience with Sister Maria
01:56:52.839 : en:Jep's Dinner for the Saint
02:02:28.924 : en:The Saint Disappears
02:03:44.417 : en:Flamingos
02:08:39.920 : en:"There's Something I Want to Show You"
02:13:07.604 : en:End Credits

Скриншоты

Source vs TayTO



Показать сообщения:    

Текущее время: 09-Дек 01:09

Часовой пояс: UTC + 3


Вы не можете начинать темы
Вы не можете отвечать на сообщения
Вы не можете редактировать свои сообщения
Вы не можете удалять свои сообщения
Вы не можете голосовать в опросах
Вы не можете прикреплять файлы к сообщениям
Вы не можете скачивать файлы