Дерево, мэр и медиатека / L'arbre, le maire et la médiathèque (Эрик Ромер / Eric Rohmer) [1993 г., Франция, комедия, BDRip 720p] VO (BBC Saint-Petersburg) + Original Fre + Sub (Rus, Eng)


 

[Цитировать]

Дерево, мэр и медиатека / L'arbre, le maire et la médiathèque- Год выпуска: 1993
Страна: Франция
Жанр: комедия
Продолжительность: 01:46:02
Перевод: Студийный (одноголосый закадровый) BBC Saint-Petersburg
Оригинальная аудиодорожка: Французская
Cубтитры: Русские форсированные (на расширенную сцену, спасибо Lisok), русские полные, английские-Режиссер: Эрик Ромер / Eric Rohmer
В ролях: Паскаль Греггори, Ариель Домбаль, Фабрис Лукини, Клементина Амуру, Франсуа-Мари Банье-Описание:
В 1992 году молодой мэр небольшого французского города, социалист, с помощью своих контактов в Париже получает деньги на строительство огромного культурно-спортивного комплекса. Но он проигрывает выборы в сенат, и это становится началом злоключений...
Мы живем в мире случайностей, но не задумываемся над ними или не знаем, что с ними делать. Однако цепь событий, порой не связанных между собой, но происшедших по воле Случая, может изменить ход истории. Судьба героев фильма... могла бы сложиться совсем по-другому, если бы не 7 "ЕСЛИ"- | IMDb | Сэмпл |-Качество: BDRip 720p
Контейнер: MKV
Видео: x264, 1016x720 (1.40:1), 25 fps, 6500 kbps
Аудио 1: Русский AC3 2.0, 48 kHz, 192 kbps — BBC Saint-Petersburg
Аудио 2: Французский DTS 1.0, 48 kHz, 768 kbps, 16-bit
Формат субтитров: softsub (SRT)

Скриншоты


MI

General
Unique ID : 223289210927488008740504745539676973651 (0xA7FBF010EEF9BB59962845CD3478AA53)
Complete name : L'arbre.le.Maire.et.la.Mediatheque.1993.720p.BluRay.AVC-mfcorrea.mkv
Format : Matroska
Format version : Version 2
File size : 5.53 GiB
Duration : 1h 46mn
Overall bit rate : 7 463 Kbps
Movie name : L'arbre, le maire et la médiathèque / Дерево, мэр и медиатека (1993)
Encoded date : UTC 2014-04-03 16:59:49
Writing application : mkvmerge v6.1.0 ('Old Devil') built on Mar 2 2013 14:32:37
Writing library : libebml v1.3.0 + libmatroska v1.4.0
Attachment : Yes
Video
ID : 1
Format : AVC
Format/Info : Advanced Video Codec
Format profile : High@L4.0
Format settings, CABAC : Yes
Format settings, ReFrames : 6 frames
Codec ID : V_MPEG4/ISO/AVC
Duration : 1h 46mn
Bit rate : 6 500 Kbps
Width : 1 016 pixels
Height : 720 pixels
Display aspect ratio : 1.411
Frame rate mode : Constant
Frame rate : 25.000 fps
Color space : YUV
Chroma subsampling : 4:2:0
Bit depth : 8 bits
Scan type : Progressive
Bits/(Pixel*Frame) : 0.355
Stream size : 4.71 GiB (85%)
Title : L'arbre.le.Maire.et.la.Mediatheque.1993.720p.BluRay.AVC-mfcorrea
Writing library : x264 core 130 r2273 b3065e6
Encoding settings : cabac=1 / ref=6 / deblock=1:-3:-3 / analyse=0x3:0x133 / me=umh / subme=9 / psy=1 / psy_rd=1.00:0.15 / mixed_ref=1 / me_range=24 / chroma_me=1 / trellis=2 / 8x8dct=1 / cqm=0 / deadzone=21,11 / fast_pskip=1 / chroma_qp_offset=-3 / threads=18 / lookahead_threads=2 / sliced_threads=0 / nr=0 / decimate=1 / interlaced=0 / bluray_compat=0 / constrained_intra=0 / bframes=5 / b_pyramid=2 / b_adapt=2 / b_bias=0 / direct=3 / weightb=1 / open_gop=0 / weightp=2 / keyint=250 / keyint_min=25 / scenecut=40 / intra_refresh=0 / rc_lookahead=50 / rc=2pass / mbtree=1 / bitrate=6500 / ratetol=1.0 / qcomp=0.60 / qpmin=0 / qpmax=69 / qpstep=4 / cplxblur=20.0 / qblur=0.5 / vbv_maxrate=25000 / vbv_bufsize=31250 / nal_hrd=none / ip_ratio=1.40 / aq=1:1.00
Language : French
Default : Yes
Forced : No
Color primaries : BT.709
Transfer characteristics : BT.709
Matrix coefficients : BT.709
Audio #1
ID : 2
Format : AC-3
Format/Info : Audio Coding 3
Mode extension : CM (complete main)
Format settings, Endianness : Big
Codec ID : A_AC3
Duration : 1h 46mn
Bit rate mode : Constant
Bit rate : 192 Kbps
Channel(s) : 2 channels
Channel positions : Front: L R
Sampling rate : 48.0 KHz
Bit depth : 16 bits
Compression mode : Lossy
Stream size : 146 MiB (3%)
Title : VO – BBC Saint-Petersburg
Language : Russian
Default : Yes
Forced : No
Audio #2
ID : 3
Format : DTS
Format/Info : Digital Theater Systems
Mode : 16
Format settings, Endianness : Big
Codec ID : A_DTS
Duration : 1h 46mn
Bit rate mode : Constant
Bit rate : 768 Kbps
Channel(s) : 1 channel
Channel positions : Front: C
Sampling rate : 48.0 KHz
Bit depth : 16 bits
Compression mode : Lossy
Stream size : 583 MiB (10%)
Title : Original
Language : French
Default : No
Forced : No
Text #1
ID : 4
Format : UTF-8
Codec ID : S_TEXT/UTF8
Codec ID/Info : UTF-8 Plain Text
Title : Forced
Language : Russian
Default : Yes
Forced : Yes
Text #2
ID : 5
Format : UTF-8
Codec ID : S_TEXT/UTF8
Codec ID/Info : UTF-8 Plain Text
Language : Russian
Default : No
Forced : No
Text #3
ID : 6
Format : UTF-8
Codec ID : S_TEXT/UTF8
Codec ID/Info : UTF-8 Plain Text
Language : English
Default : No
Forced : No
Menu
00:00:00.000 : fr:01. Générique
00:01:48.100 : fr:02. Si
00:10:57.620 : fr:03. La campagne... électorale
00:23:06.020 : fr:04. Le saule blanc
00:31:09.340 : fr:05. Chez l'architecture
00:37:43.540 : fr:06. Hasard et répondeur
00:56:01.780 : fr:07. Un endroit exemplaire
01:13:35.180 : fr:08. Si la campagne devient la ville
01:19:24.380 : fr:09. En Somalie
01:28:01.020 : fr:10. Zoé et le ballon
01:37:57.860 : fr:11. Un fonctionnaire zélé



Показать сообщения:    

Текущее время: 04-Дек 23:18

Часовой пояс: UTC + 3


Вы не можете начинать темы
Вы не можете отвечать на сообщения
Вы не можете редактировать свои сообщения
Вы не можете удалять свои сообщения
Вы не можете голосовать в опросах
Вы не можете прикреплять файлы к сообщениям
Вы не можете скачивать файлы