Друг моей подруги / L'ami de mon amie / Boyfriends and Girlfriends (Эрик Ромер / Eric Rohmer) [1987 г, Франция, драма, мелодрама, комедия, BDRip 720p] MVO (Видеоимпульс) + AVO (Янкилевич) + Original Fre + Sub (Rus, Eng)


 

[Цитировать]

Друг моей подруги / L'ami de mon amie / Boyfriends and Girlfriends
Страна: Франция
Студия: 01:43:27
Жанр: драма, мелодрама, комедия
Год выпуска: 1987
Продолжительность: 01:43:27
Перевод: Профессиональный (многоголосый закадровый) Видеоимпульс
Перевод 2: Авторский (одноголосый закадровый) Роман Янкилевич
Cубтитры: Русские, английские
Оригинальная аудиодорожка: французский
Режиссер: Эрик Ромер / Eric Rohmer
В ролях: Эмманюэль Шоле, Софи Ренуар, Анн-Лор Мёри, Эрик Вьеллар, Франсуа-Эрик Жандрон
Описание: Остроумная, ироничная "постельная" комедия с очень приятным финалом. Две очень разные молодые женщины заводят знакомство с двумя мужчинами и... дальше события развиваются в чисто французском ключе.

MPAA: PG - Рекомендуется присутствие родителей-Доп. информация: • За исходник спасибо DarLeg
Сэмпл: http://multi-up.com/962219
Тип релиза: BDRip 720p
Контейнер: MKV
Видео: MPEG-4 AVC, 8400 Кбит/с, 960x720, 24 кадр/с
Аудио №1: русский / AC3 / 2.0 / 48 kHz / 224 kbps / 16 bit |Видеоимпульс|
Аудио №2: русский / AC3 / 2.0 / 48 kHz / 192 kbps / 16 bit |Роман Янкилевич|
Аудио №3: французский / DTS / 1 / 48 kHz / 755 kbps / 16 bit
Навигация по главам: есть
Формат субтитров: softsub (SRT)

Релиз: MediaClub

x264

x264 [info]: frame I:788   Avg QP:16.42  size:155290
x264 [info]: frame P:27642 Avg QP:18.84  size: 80365
x264 [info]: frame B:120540 Avg QP:20.67  size: 34615
x264 [info]: consecutive B-frames:  1.0%  1.0%  2.6% 11.7% 18.3% 44.8% 11.2%  3.1%  3.9%  1.2%  1.1%
x264 [info]: mb I  I16..4:  7.0% 72.8% 20.2%
x264 [info]: mb P  I16..4:  0.0% 22.5%  0.8%  P16..4: 22.8% 33.1% 20.5%  0.0%  0.0%    skip: 0.3%
x264 [info]: mb B  I16..4:  0.0%  3.2%  0.1%  B16..8: 33.8% 27.4% 10.3%  direct:12.8%  skip:12.4%  L0:41.8% L1:36.1% BI:22.1%
x264 [info]: 8x8 transform intra:95.3% inter:52.5%
x264 [info]: direct mvs  spatial:97.0% temporal:3.0%
x264 [info]: coded y,uvDC,uvAC intra: 99.7% 92.7% 78.5% inter: 61.5% 35.4% 13.0%
x264 [info]: i16 v,h,dc,p:  7%  5% 42% 46%
x264 [info]: i8 v,h,dc,ddl,ddr,vr,hd,vl,hu:  8% 11% 16%  9% 12% 10% 12% 10% 13%
x264 [info]: i4 v,h,dc,ddl,ddr,vr,hd,vl,hu:  9% 10%  4%  9% 15% 13% 14% 11% 14%
x264 [info]: i8c dc,h,v,p: 50% 20% 17% 14%
x264 [info]: Weighted P-Frames: Y:3.3% UV:0.7%
x264 [info]: ref P L0: 32.2% 11.1% 20.4%  8.1%  8.6%  5.5%  6.3%  3.4%  4.2%  0.2%  0.0%
x264 [info]: ref B L0: 71.7% 12.0%  5.9%  3.6%  2.6%  2.4%  1.3%  0.5%
x264 [info]: ref B L1: 93.6%  6.4%
x264 [info]: kb/s:8398.58

MediaInfo

Format                           : Matroska
Format version                   : Version 4 / Version 2
File size                        : 6.93 GiB
Duration                         : 1h 43mn
Overall bit rate                 : 9 586 Kbps
Movie name                       :  -=MediaClub - Odessit=-
Encoded date                     : UTC 2014-03-26 19:00:58
Writing application              : mkvmerge v6.8.0 ('Theme for Great Cities') 64bit built on Mar  2 2014 21:34:26
Writing library                  : libebml v1.3.0 + libmatroska v1.4.1
Video
ID                               : 1
Format                           : AVC
Format/Info                      : Advanced Video Codec
Format profile                   : High@L4.1
Format settings, CABAC           : Yes
Format settings, ReFrames        : 9 frames
Codec ID                         : V_MPEG4/ISO/AVC
Duration                         : 1h 43mn
Bit rate                         : 8 400 Kbps
Width                            : 960 pixels
Height                           : 720 pixels
Display aspect ratio             : 4:3
Frame rate                       : 24.000 fps
Color space                      : YUV
Chroma subsampling               : 4:2:0
Bit depth                        : 8 bits
Scan type                        : Progressive
Bits/(Pixel*Frame)               : 0.506
Stream size                      : 5.94 GiB (86%)
Writing library                  : x264 core 142 r2409+42 04be48a tMod [8-bit@4:2:0 X86_64]
Encoding settings                : cabac=1 / ref=9 / deblock=1:-3:-3 / analyse=0x3:0x113 / me=umh / subme=11 / psy=1 / fade_compensate=0.00 / psy_rd=1.00:0.05 / mixed_ref=1 / me_range=32 / chroma_me=1 / trellis=2 / 8x8dct=1 / cqm=0 / deadzone=21,11 / fast_pskip=0 / chroma_qp_offset=-3 / threads=6 / lookahead_threads=1 / sliced_threads=0 / nr=0 / decimate=0 / interlaced=0 / bluray_compat=0 / constrained_intra=0 / fgo=0 / bframes=10 / b_pyramid=2 / b_adapt=2 / b_bias=0 / direct=3 / weightb=1 / open_gop=0 / weightp=2 / keyint=240 / keyint_min=24 / scenecut=40 / intra_refresh=0 / rc=2pass / mbtree=0 / bitrate=8400 / ratetol=1.0 / qcomp=0.60 / qpmin=0:0:0 / qpmax=69:69:69 / qpstep=4 / cplxblur=20.0 / qblur=0.5 / ip_ratio=1.40 / pb_ratio=1.30 / aq=2:0.90 / aq-sensitivity=10.00 / aq-factor=1.00:1.00:1.00 / aq2=0 / aq3=0
Language                         : English
Audio #1
ID                               : 2
Format                           : AC-3
Format/Info                      : Audio Coding 3
Mode extension                   : CM (complete main)
Codec ID                         : A_AC3
Duration                         : 1h 43mn
Bit rate mode                    : Constant
Bit rate                         : 224 Kbps
Channel(s)                       : 2 channels
Channel positions                : Front: L R
Sampling rate                    : 48.0 KHz
Bit depth                        : 16 bits
Compression mode                 : Lossy
Stream size                      : 166 MiB (2%)
Title                            : Профессиональный многоголосый (Видеоимпульс)
Language                         : Russian
Audio #2
ID                               : 3
Format                           : AC-3
Format/Info                      : Audio Coding 3
Mode extension                   : CM (complete main)
Codec ID                         : A_AC3
Duration                         : 1h 43mn
Bit rate mode                    : Constant
Bit rate                         : 192 Kbps
Channel(s)                       : 2 channels
Channel positions                : Front: L R
Sampling rate                    : 48.0 KHz
Bit depth                        : 16 bits
Compression mode                 : Lossy
Stream size                      : 142 MiB (2%)
Title                            : Авторский одноголосый (Янкилевич)
Language                         : Russian
Audio #3
ID                               : 4
Format                           : DTS
Format/Info                      : Digital Theater Systems
Codec ID                         : A_DTS
Duration                         : 1h 43mn
Bit rate mode                    : Constant
Bit rate                         : 755 Kbps
Channel(s)                       : 1 channel
Channel positions                : Front: C
Sampling rate                    : 48.0 KHz
Bit depth                        : 16 bits
Compression mode                 : Lossy
Stream size                      : 558 MiB (8%)
Language                         : French
Text #1
ID                               : 5
Format                           : UTF-8
Codec ID                         : S_TEXT/UTF8
Codec ID/Info                    : UTF-8 Plain Text
Language                         : Russian
Text #2
ID                               : 6
Format                           : UTF-8
Codec ID                         : S_TEXT/UTF8
Codec ID/Info                    : UTF-8 Plain Text
Language                         : English
Menu
00:00:00.000                     : fr:01. Blanche et Léa
00:06:44.833                     : fr:02. Alexandre et Fabien
00:12:41.208                     : fr:03. Confidences
00:18:13.500                     : fr:04. Intérêt sentimental
00:27:12.250                     : fr:05. Départ de Léa
00:32:40.833                     : fr:06. Double mixte
00:38:06.917                     : fr:07. Rencontres fortuites
00:44:47.917                     : fr:08. Tentative avortée
00:48:43.292                     : fr:09. Au fil de l'eau
00:56:47.292                     : fr:10. Le chemin de hallage
01:06:13.042                     : fr:11. Les aimis des amis
01:15:18.625                     : fr:12. Changement de programme
01:27:58.625                     : fr:13. Chassé croisé
01:36:21.542                     : fr:14. Bonnes vacances

Скриншоты

Сравнения

Source vs. Encode





Показать сообщения:    

Текущее время: 10-Дек 21:29

Часовой пояс: UTC + 3


Вы не можете начинать темы
Вы не можете отвечать на сообщения
Вы не можете редактировать свои сообщения
Вы не можете удалять свои сообщения
Вы не можете голосовать в опросах
Вы не можете прикреплять файлы к сообщениям
Вы не можете скачивать файлы