Персона / Persona (Ингмар Бергман / Ingmar Bergman) [1966, Швеция, драма, BDRemux 1080p] [Criterion Collection] 2x DVO + VO + Sub (Rus, Eng) + Original Swe


 

[Цитировать]

Персона / Persona
Страна: Швеция
Жанр: драма
Год выпуска: 1966
Продолжительность: 01:24:04
Перевод: Профессиональный (двухголосый закадровый) | с издания "Арт-Синема"
Перевод: Профессиональный (двухголосый закадровый) | Видеоимпульс
Перевод: Одноголосый закадровый | Валерий Казаков
Cубтитры: русские, английские
Оригинальная аудиодорожка: шведский-Режиссер: Ингмар Бергман / Ingmar Bergman
В ролях: Биби Андерсон, Лив Ульман, Гуннар Бьёрнстранд, Маргарета Кроок
Описание: Известная актриса Элизабет Фоглер во время одного из спектаклей замолкает посреди действия. Она не заболела, не потеряла голос, а просто замолчала. Ее поместили в клинику и приставили медсестру Алму. Позже было решено, что им лучше вдвоем на некоторое время поселиться в доме у моря, принадлежащем доктору. Элизабет все время молчит, а Алма рассказывает ей о своей жизни...
IMDb || КиноПоиск-Тип релиза: BDRemux 1080p [Persona 1966 1080p Blu-ray AVC LPCM 1.0 (thanks violator99)]
Контейнер: MKV
Видео: MPEG-4 AVC Video, 1920x1080 at 23.976 fps, 29370 kbps
Аудио#1: Russian: 48 kHz, AC3, 2.0 ch, 192 kbps |Двухголосый закадровый|
Аудио#2: Russian: 48 kHz, AC3, 2.0 ch, 192 kbps |Двухголосый закадровый|
Аудио#3: Russian: 48 kHz, AC3, 1.0 ch, 96 kbps |Одноголосый закадровый|
Аудио#4: Swedish: 48 kHz, LPCM, 1.0 ch, 1152 kbps
Формат субтитров: softsub (SRT)
Сэмпл

MediaInfo

General
Unique ID : 206794969296488651534814906846089158381 (0x9B93432ACA420884905AF55931A59EED)
Complete name : L:\Rutracker\Персона\Persona.1966.CC.BDRemux. rutracker.mkv
Format : Matroska
Format version : Version 2
File size : 18.1 GiB
Duration : 1h 24mn
Overall bit rate mode : Variable
Overall bit rate : 30.9 Mbps
Movie name : Release for RuTracker
Encoded date : UTC 2014-03-26 18:39:05
Writing application : mkvmerge v5.0.1 ('Es ist Sommer') built on Nov 6 2011 16:23:40
Writing library : libebml v1.2.2 + libmatroska v1.3.0
Video
ID : 1
Format : AVC
Format/Info : Advanced Video Codec
Format profile : High@L4.1
Format settings, CABAC : Yes
Format settings, ReFrames : 4 frames
Codec ID : V_MPEG4/ISO/AVC
Duration : 1h 24mn
Bit rate mode : Variable
Maximum bit rate : 37.0 Mbps
Width : 1 920 pixels
Height : 1 080 pixels
Display aspect ratio : 16:9
Frame rate : 23.976 fps
Color space : YUV
Chroma subsampling : 4:2:0
Bit depth : 8 bits
Scan type : Progressive
Title : Persona.1966.CC.BDRemux. rutracker
Language : Swedish
Default : Yes
Forced : No
Audio #1
ID : 2
Format : AC-3
Format/Info : Audio Coding 3
Mode extension : CM (complete main)
Codec ID : A_AC3
Duration : 1h 24mn
Bit rate mode : Constant
Bit rate : 192 Kbps
Channel(s) : 2 channels
Channel positions : Front: L R
Sampling rate : 48.0 KHz
Bit depth : 16 bits
Compression mode : Lossy
Stream size : 115 MiB (1%)
Title : dvo, Арт-Синема
Language : Russian
Default : Yes
Forced : No
Audio #2
ID : 3
Format : AC-3
Format/Info : Audio Coding 3
Mode extension : CM (complete main)
Codec ID : A_AC3
Duration : 1h 24mn
Bit rate mode : Constant
Bit rate : 192 Kbps
Channel(s) : 2 channels
Channel positions : Front: L R
Sampling rate : 48.0 KHz
Bit depth : 16 bits
Compression mode : Lossy
Stream size : 115 MiB (1%)
Title : dvo, Видеоимпульс
Language : Russian
Default : No
Forced : No
Audio #3
ID : 4
Format : AC-3
Format/Info : Audio Coding 3
Mode extension : CM (complete main)
Codec ID : A_AC3
Duration : 1h 24mn
Bit rate mode : Constant
Bit rate : 96.0 Kbps
Channel(s) : 1 channel
Channel positions : Front: C
Sampling rate : 48.0 KHz
Bit depth : 16 bits
Compression mode : Lossy
Stream size : 57.7 MiB (0%)
Title : vo, В.Казаков
Language : Russian
Default : No
Forced : No
Audio #4
ID : 5
Format : PCM
Codec ID : A_PCM/INT/LIT
Duration : 1h 24mn
Bit rate mode : Constant
Sampling rate : 48.0 KHz
Bit depth : 24 bits
Language : Swedish
Default : No
Forced : No
Text #1
ID : 6
Format : UTF-8
Codec ID : S_TEXT/UTF8
Codec ID/Info : UTF-8 Plain Text
Language : Russian
Default : No
Forced : No
Text #2
ID : 7
Format : UTF-8
Codec ID : S_TEXT/UTF8
Codec ID/Info : UTF-8 Plain Text
Language : English
Default : No
Forced : No
Menu
00:00:00.000 : :Prologue
00:07:16.144 : :Mrs. Vogler's Situation
00:13:30.184 : :Nurse Alma
00:19:35.257 : :"A fantastic part"
00:22:12.622 : :Seaside stay
00:24:33.847 : :A good listener
00:28:08.812 : :Sunbathing
00:35:04.268 : :"Go to bed"
00:40:40.980 : :Elisabet's letter
00:43:36.613 : :Broken glass
00:47:38.855 : :"Talk to me"
00:54:21.424 : :Rotten
01:00:18.406 : :Night terrors
01:06:27.775 : :Elisabet's little boy
01:15:08.295 : :"You won't get to me"
01:20:07.719 : :The end

Скриншоты




Показать сообщения:    

Текущее время: 08-Дек 03:16

Часовой пояс: UTC + 3


Вы не можете начинать темы
Вы не можете отвечать на сообщения
Вы не можете редактировать свои сообщения
Вы не можете удалять свои сообщения
Вы не можете голосовать в опросах
Вы не можете прикреплять файлы к сообщениям
Вы не можете скачивать файлы