Трое негодяев в скрытой крепости / Kakushi-toride no san-akunin / The Hidden Fortress (Акира Куросава / Akira Kurosawa) [1958, Япония, драма, приключения, BDRip 720p] [Criterion Collection] 2x MVO + AVO (Живов) + Sub (Rus, Eng) + Original Jap


 

[Цитировать]

Трое негодяев в скрытой крепости / Kakushi-toride no san-akunin / The Hidden Fortress
Страна: Япония
Жанр: драма, приключения
Год выпуска: 1958
Продолжительность: 02:18:59
Перевод: Профессиональный (многоголосый закадровый) | Триумф Видео
Перевод: Профессиональный (многоголосый закадровый) | Cinema Prestige
Перевод: Авторский (одноголосый закадровый) | Юрий Живов
Cубтитры: русские, английские
Оригинальная аудиодорожка: японский-Режиссер: Акира Куросава / Akira Kurosawa
В ролях: Тосиро Мифунэ, Минору Чиаки, Каматари Фудзивара, Сусуму Фудзита, Такаси Симура, Миса Уехара, Эйко Миёси, Тошико Хигучи, Ю Фудзики, Ёсио Цутия
Описание: После междоусобной войны из разгромленного клана Акидзуки выжила только принцесса Юки. Ее необходимо переправить в безопасное место. Как, если враг не дремлет, а за голову девушки обещана хорошая награда? У преданного ей генерала Рокурота Макабе рождается дерзкий план. Он и Юки переодеваются крестьянами, в помощники нанимают двух придурковатых бродяг, на лошадей грузят валежник, в котором спрятано золото клана, и отправляются в смертельно опасный путь прямо по территории неприятеля...
IMDb || КиноПоиск-Тип релиза: BDRip 720p [iCO]
Контейнер: MKV
Видео: H.264/AVC, 1280x536 at 23.976 fps, 8000 kbps
Аудио#1: Russian: 48 kHz, AC3, 2.0 ch, 192 kbps |Многоголосый закадровый, Триумф Видео|
Аудио#2: Russian: 48 kHz, AC3, 2.0 ch, 192 kbps |Многоголосый закадровый, Cinema Prestige|
Аудио#3: Russian: 48 kHz, AC3, 2.0 ch, 192 kbps |Авторский одноголосый закадровый, Ю.Живов|
Аудио#4: Japan: 48 kHz, FLAC, 1.0 ch, 551 kbps
Аудио#5: English: 48 kHz, AAC, 1.0 ch, 76 kbps |Commentary by film historian Stephen Prince|
Формат субтитров: softsub (SRT)
Сэмпл

MediaInfox264

x264 [info]: frame I:1100 Avg QP:17.77 size:146752
x264 [info]: frame P:47496 Avg QP:20.33 size: 66198
x264 [info]: frame B:151363 Avg QP:22.27 size: 33261
x264 [info]: consecutive B-frames: 4.3% 3.8% 7.4% 22.4% 14.5% 30.4% 6.0% 4.2% 4.1% 3.0%
encoded 199959 frames, 5.69 fps, 8000.06 kb/s
General
Unique ID : 171795295209685565014550400862569683867 (0x813E9201781BED39965418718D20DB9B)
Complete name : L:\Скрытая крепость\The hidden fortress.1958.CC.720p-iCO.
Format : Matroska
Format version : Version 2
File size : 8.94 GiB
Duration : 2h 18mn
Overall bit rate mode : Variable
Overall bit rate : 9 207 Kbps
Movie name :
Encoded date : UTC 2014-03-26 20:07:22
Writing application : mkvmerge v5.0.1 ('Es ist Sommer') built on Nov 6 2011 16:23:40
Writing library : libebml v1.2.2 + libmatroska v1.3.0
Video
ID : 1
Format : AVC
Format/Info : Advanced Video Codec
Format profile : High@L4.1
Format settings, CABAC : Yes
Format settings, ReFrames : 12 frames
Codec ID : V_MPEG4/ISO/AVC
Duration : 2h 18mn
Nominal bit rate : 8 000 Kbps
Width : 1 280 pixels
Height : 536 pixels
Display aspect ratio : 2.40:1
Frame rate : 23.976 fps
Color space : YUV
Chroma subsampling : 4:2:0
Bit depth : 8 bits
Scan type : Progressive
Bits/(Pixel*Frame) : 0.486
Title : iCO
Writing library : x264 core 142 r2389 956c8d8
Encoding settings : cabac=1 / ref=12 / deblock=1:-3:-3 / analyse=0x3:0x133 / me=umh / subme=10 / psy=1 / psy_rd=1.20:0.00 / mixed_ref=1 / me_range=24 / chroma_me=1 / trellis=2 / 8x8dct=1 / cqm=0 / deadzone=21,11 / fast_pskip=0 / chroma_qp_offset=-2 / threads=6 / lookahead_threads=1 / sliced_threads=0 / nr=0 / decimate=0 / interlaced=0 / bluray_compat=0 / constrained_intra=0 / bframes=9 / b_pyramid=2 / b_adapt=2 / b_bias=0 / direct=3 / weightb=1 / open_gop=0 / weightp=2 / keyint=250 / keyint_min=23 / scenecut=40 / intra_refresh=0 / rc=2pass / mbtree=0 / bitrate=8000 / ratetol=1.0 / qcomp=0.60 / qpmin=0 / qpmax=69 / qpstep=4 / cplxblur=20.0 / qblur=0.5 / ip_ratio=1.40 / pb_ratio=1.30 / aq=2:0.60
Language : Japanese
Default : Yes
Forced : No
Audio #1
ID : 2
Format : AC-3
Format/Info : Audio Coding 3
Mode extension : CM (complete main)
Codec ID : A_AC3
Duration : 2h 18mn
Bit rate mode : Constant
Bit rate : 192 Kbps
Channel(s) : 2 channels
Channel positions : Front: L R
Sampling rate : 48.0 KHz
Bit depth : 16 bits
Compression mode : Lossy
Stream size : 191 MiB (2%)
Title : Триумф Видео
Language : Russian
Default : Yes
Forced : No
Audio #2
ID : 3
Format : AC-3
Format/Info : Audio Coding 3
Mode extension : CM (complete main)
Codec ID : A_AC3
Duration : 2h 18mn
Bit rate mode : Constant
Bit rate : 192 Kbps
Channel(s) : 2 channels
Channel positions : Front: L R
Sampling rate : 48.0 KHz
Bit depth : 16 bits
Compression mode : Lossy
Stream size : 191 MiB (2%)
Title : Cinema Prestige
Language : Russian
Default : No
Forced : No
Audio #3
ID : 4
Format : AC-3
Format/Info : Audio Coding 3
Mode extension : CM (complete main)
Codec ID : A_AC3
Duration : 2h 18mn
Bit rate mode : Constant
Bit rate : 192 Kbps
Channel(s) : 2 channels
Channel positions : Front: L R
Sampling rate : 48.0 KHz
Bit depth : 16 bits
Compression mode : Lossy
Stream size : 191 MiB (2%)
Title : avo, Ю.Живов
Language : Russian
Default : No
Forced : No
Audio #4
ID : 5
Format : FLAC
Format/Info : Free Lossless Audio Codec
Codec ID : A_FLAC
Duration : 2h 18mn
Bit rate mode : Variable
Channel(s) : 1 channel
Sampling rate : 48.0 KHz
Bit depth : 24 bits
Writing library : libFLAC 1.2.1 (UTC 2007-09-17)
Language : Japanese
Default : No
Forced : No
Audio #5
ID : 6
Format : AAC
Format/Info : Advanced Audio Codec
Format profile : LC
Codec ID : A_AAC
Duration : 2h 18mn
Channel(s) : 1 channel
Channel positions : Front: C
Sampling rate : 48.0 KHz
Compression mode : Lossy
Delay relative to video : 9ms
Title : Commentary by Stephen Prince
Language : English
Default : No
Forced : No
Text #1
ID : 7
Format : UTF-8
Codec ID : S_TEXT/UTF8
Codec ID/Info : UTF-8 Plain Text
Language : Russian
Default : No
Forced : No
Text #2
ID : 8
Format : UTF-8
Codec ID : S_TEXT/UTF8
Codec ID/Info : UTF-8 Plain Text
Language : English
Default : No
Forced : No
Menu
00:00:00.000 : :1. An unlucky pair
00:05:08.141 : :2. Wanted
00:09:10.300 : :3. Close call
00:14:45.593 : :4. Surprise discovery
00:19:21.452 : :5. The general
00:27:00.118 : :6. Hidden fortress
00:31:18.293 : :7. Rokurota Makabe
00:36:36.194 : :8. A girl
00:41:11.052 : :9. Princess Yuki
00:45:12.460 : :10. Rokurota's ruse
00:52:07.624 : :11. A clever plan
00:57:20.103 : :12. Two hundred pieces
01:01:13.670 : :13. Leaving the fortress
01:05:18.206 : :14. No escape
01:10:48.995 : :15. Mind tricks
01:17:17.216 : :16. A woman's worth
01:22:24.648 : :17. Rokurota in action
01:26:07.245 : :18. Duel
01:35:20.298 : :19. Mounting frustrations
01:41:15.111 : :20. Fire festival
01:49:04.955 : :21. Extra hands
01:54:49.257 : :22. Drawing fire
01:59:33.792 : :23. Scarred
02:05:59.635 : :24. An honorable man
02:11:18.079 : :25. Shifting fortunes
02:15:02.720 : :26. Lucky at last

Скриншоты

Source vs iCO vs EbP (Toho)



Показать сообщения:    

Текущее время: 08-Дек 11:01

Часовой пояс: UTC + 3


Вы не можете начинать темы
Вы не можете отвечать на сообщения
Вы не можете редактировать свои сообщения
Вы не можете удалять свои сообщения
Вы не можете голосовать в опросах
Вы не можете прикреплять файлы к сообщениям
Вы не можете скачивать файлы