Друг моей подруги / L'ami de mon amie / Boyfriends and Girlfriends (Эрик Ромер / Eric Rohmer) [1987 г., Франция, драма, мелодрама, комедия, BDRemux 1080p] MVO (Видеоимпульс) + AVO (Янкилевич) + Original Fre + Sub (Rus, Eng)


 

[Цитировать]

Друг моей подруги / L'ami de mon amie / Boyfriends and Girlfriends- Год выпуска: 1987
Страна: Франция
Жанр: драма, мелодрама, комедия
Продолжительность: 01:43:27
Перевод:
  • Профессиональный (многоголосый закадровый) Видеоимпульс
  • Авторский (одноголосый закадровый) Роман Янкилевич
Оригинальная аудиодорожка: Французская
Cубтитры: Русские, английские-Режиссер: Эрик Ромер / Eric Rohmer
В ролях: Эмманюэль Шоле, Софи Ренуар, Анн-Лор Мёри, Эрик Вьеллар, Франсуа-Эрик Жандрон-Описание:
Остроумная, ироничная "постельная" комедия с очень приятным финалом. Две очень разные молодые женщины заводят знакомство с двумя мужчинами и... дальше события развиваются в чисто французском ключе.-За дорожки спасибо therthe.
| -Качество: BDRemux 1080p (L'ami de mon amie 1987 1080p Blu-ray AVC DTS-HD MA 1.0, thx banjo92)
Контейнер: MKV
Видео: AVC, 1920x1080 (1.33:1), 24 fps, 28101 kbps
Аудио 1: Русский AC3 2.0, 48 kHz, 224 kbps — Видеоимпульс
Аудио 2: Русский AC3 2.0, 48 kHz, 192 kbps — Янкилевич
Аудио 3: Французский DTS-HD MA 1.0, 48 kHz, 941 kbps, 16-bit (DTS Core: 1.0, 48 kHz, 768 kbps, 16-bit)
Формат субтитров: softsub (SRT)

Скриншоты


MI

General
Unique ID : 213887939007265902806673357210211133695 (0xA0E95192E5E6D4DEA9F9D574D72D28FF)
Complete name : L'ami.de.mon.amie.1987.1080p.Remux.mkv
Format : Matroska
Format version : Version 2
File size : 21.3 GiB
Duration : 1h 43mn
Overall bit rate mode : Variable
Overall bit rate : 29.5 Mbps
Movie name : L'ami de mon amie / Друг моей подруги (1987)
Encoded date : UTC 2014-03-25 14:32:54
Writing application : mkvmerge v6.1.0 ('Old Devil') built on Mar 2 2013 14:32:37
Writing library : libebml v1.3.0 + libmatroska v1.4.0
Attachment : Yes
Video
ID : 1
Format : AVC
Format/Info : Advanced Video Codec
Format profile : High@L4.1
Format settings, CABAC : Yes
Format settings, ReFrames : 4 frames
Format settings, GOP : M=3, N=24
Codec ID : V_MPEG4/ISO/AVC
Duration : 1h 43mn
Bit rate mode : Variable
Maximum bit rate : 35.0 Mbps
Width : 1 920 pixels
Height : 1 080 pixels
Display aspect ratio : 16:9
Frame rate mode : Constant
Frame rate : 24.000 fps
Standard : NTSC
Color space : YUV
Chroma subsampling : 4:2:0
Bit depth : 8 bits
Scan type : Progressive
Title : L'ami de mon amie 1987 1080p Blu-ray AVC DTS-HD MA 1.0-banjo92
Language : French
Default : Yes
Forced : No
Color primaries : BT.709
Transfer characteristics : BT.709
Matrix coefficients : BT.709
Audio #1
ID : 2
Format : AC-3
Format/Info : Audio Coding 3
Mode extension : CM (complete main)
Format settings, Endianness : Big
Codec ID : A_AC3
Duration : 1h 43mn
Bit rate mode : Constant
Bit rate : 224 Kbps
Channel(s) : 2 channels
Channel positions : Front: L R
Sampling rate : 48.0 KHz
Bit depth : 16 bits
Compression mode : Lossy
Stream size : 166 MiB (1%)
Title : MVO – Видеоимпульс
Language : Russian
Default : Yes
Forced : No
Audio #2
ID : 3
Format : AC-3
Format/Info : Audio Coding 3
Mode extension : CM (complete main)
Format settings, Endianness : Big
Codec ID : A_AC3
Duration : 1h 43mn
Bit rate mode : Constant
Bit rate : 192 Kbps
Channel(s) : 2 channels
Channel positions : Front: L R
Sampling rate : 48.0 KHz
Bit depth : 16 bits
Compression mode : Lossy
Stream size : 142 MiB (1%)
Title : AVO – Р.Янкилевич
Language : Russian
Default : No
Forced : No
Audio #3
ID : 4
Format : DTS
Format/Info : Digital Theater Systems
Format profile : MA / Core
Mode : 16
Format settings, Endianness : Big
Codec ID : A_DTS
Duration : 1h 43mn
Bit rate mode : Variable
Bit rate : Unknown / 768 Kbps
Channel(s) : 1 channel
Channel positions : Front: C
Sampling rate : 48.0 KHz
Bit depth : 16 bits
Compression mode : Lossless / Lossy
Title : Original
Language : French
Default : No
Forced : No
Text #1
ID : 5
Format : UTF-8
Codec ID : S_TEXT/UTF8
Codec ID/Info : UTF-8 Plain Text
Title : R5
Language : Russian
Default : No
Forced : No
Text #2
ID : 6
Format : UTF-8
Codec ID : S_TEXT/UTF8
Codec ID/Info : UTF-8 Plain Text
Language : English
Default : No
Forced : No
Menu
00:00:00.000 : fr:01. Blanche et Léa
00:06:44.833 : fr:02. Alexandre et Fabien
00:12:41.208 : fr:03. Confidences
00:18:13.500 : fr:04. Intérêt sentimental
00:27:12.250 : fr:05. Départ de Léa
00:32:40.833 : fr:06. Double mixte
00:38:06.917 : fr:07. Rencontres fortuites
00:44:47.917 : fr:08. Tentative avortée
00:48:43.292 : fr:09. Au fil de l'eau
00:56:47.292 : fr:10. Le chemin de hallage
01:06:13.042 : fr:11. Les aimis des amis
01:15:18.625 : fr:12. Changement de programme
01:27:58.625 : fr:13. Chassé croisé
01:36:21.542 : fr:14. Bonnes vacances



Показать сообщения:    

Текущее время: 10-Дек 17:38

Часовой пояс: UTC + 3


Вы не можете начинать темы
Вы не можете отвечать на сообщения
Вы не можете редактировать свои сообщения
Вы не можете удалять свои сообщения
Вы не можете голосовать в опросах
Вы не можете прикреплять файлы к сообщениям
Вы не можете скачивать файлы