Мальчик с велосипедом / Le gamin au velo / The Kid with a Bike (Жан-Пьер Дарденн, Люк Дарденн / Jean-Pierre Dardenne, Luc Dardenne) [2011, Бельгия, Франция, Италия, драма, BDRip 720p] 2 x MVO (R5, Первый канал) + Original Fre + Sub (Rus, Eng)


 

[Цитировать]

Мальчик с велосипедом / Le gamin au velo / The Kid with a Bike [Criterion #646]- Год выпуска: 2011
Страна: Бельгия, Франция, Италия
Жанр: драма
Продолжительность: 01:27:32
Перевод:
  • Профессиональный (многоголосый закадровый) R5
  • Профессиональный (многоголосый закадровый) Первый канал
Оригинальная аудиодорожка: Французская
Cубтитры: Русские (R5; Dmitry_Yudaev; Dim01), английские-Режиссер: Жан-Пьер Дарденн, Люк Дарденн / Jean-Pierre Dardenne, Luc Dardenne
В ролях: Тома Доре, Сесиль Де Франс, Жереми Ренье, Фабрицио Ронджоне, Эгон Ди Матео, Оливье Гурме, Батисте Сорнен, Сэмюэл Де Рийк, Карл Жадо, Клоди Дэлфоз-Описание:
Двенадцатилетний Сирил живет одной мыслью: найти своего отца, сдавшего его в детстве в приют. Мальчик убегает из детского дома, чтобы разыскать пропавшего папу. Его ловят, возвращают в приют, но он снова убегает, и тут происходит чудо... Случайно Сирил знакомится с Самантой, хозяйкой салона причесок, которая соглашается брать его к себе на выходные. Сирил не замечает любви Саманты, любви, в которой так нуждается.-За дорожку R5 спасибо andrmaj132.
| | Сэмпл-Качество: BDRip 720p (CHD / Le gamin au vélo 2011 1080p Blu-ray AVC DTS-HD MA 5.1, thx Artifaxx@AHD)
Контейнер: MKV
Видео: 1280x692 (1.85:1), 23.976 fps, 7494 kbps
Аудио 1: Русский AC3 2.0, 48 kHz, 256 kbps — R5
Аудио 2: Русский AC3 2.0, 48 kHz, 224 kbps — Первый канал
Аудио 3: Французский DTS 5.1, 48 kHz, 1509 kbps, 24-bit
Формат субтитров: softsub (SRT)

Скриншоты


MInfo

The.Kid.with.a.Bike.2011.Criterion.Collection.BluRay.720p.DTS.x264-CHD
RELEASE DATE....: 03/21/2013
THEATRE DATE....: 2011
iMDB URL........: http://www.imdb.com/title/tt1827512
iMDB RATiNG.....: 7.3/10 (10,944 votes)
GENRE...........: Drama
SOURCE .........: The Kid With A Bike 2011 Criterion Collection 1080p Blu-ray AVC DTS-HD MA 5.1-Artifaxx@AHD
ViDEO BiTRATE...: x264 L4.1 High @ 7494 Kbps
FRAME RATE......: 23.976 fps
AUDiO 1.........: French DTS 5.1 1509Kbps
RUNTiME.........: 01:27:32 (h:m:s)
ASPECT RATiO....: 1.850 : 1
RESOLUTiON......: 1280 X 692
SUBTiTLES.......: N/A
CHAPTERS........: N/A
FilE SiZE.......: 5.5 G
ENCODER.........: hahay0yo@CHD
x264 [info]: frame I:545 Avg QP:15.57 size:143688
x264 [info]: frame P:34157 Avg QP:18.09 size: 63378
x264 [info]: frame B:91241 Avg QP:19.88 size: 29260
General
Unique ID : 210473986358892835286182498326702003760 (0x9E57D0B6790A9101A631B05AF0C51630)
Complete name : The.Kid.with.a.Bike.2011.Criterion.Collection.BluRay.720p.x264-CHD.mkv
Format : Matroska
Format version : Version 2
File size : 5.79 GiB
Duration : 1h 27mn
Overall bit rate : 9 474 Kbps
Movie name : Le gamin au vélo / Мальчик с велосипедом (2011) – RuTracker
Encoded date : UTC 2014-03-23 17:36:22
Writing application : mkvmerge v6.1.0 ('Old Devil') built on Mar 2 2013 14:32:37
Writing library : libebml v1.3.0 + libmatroska v1.4.0
Attachment : Yes
Video
ID : 1
Format : AVC
Format/Info : Advanced Video Codec
Format profile : High@L4.1
Format settings, CABAC : Yes
Format settings, ReFrames : 9 frames
Codec ID : V_MPEG4/ISO/AVC
Duration : 1h 27mn
Bit rate : 7 494 Kbps
Width : 1 280 pixels
Height : 692 pixels
Display aspect ratio : 1.85:1
Frame rate mode : Constant
Frame rate : 23.976 fps
Color space : YUV
Chroma subsampling : 4:2:0
Bit depth : 8 bits
Scan type : Progressive
Bits/(Pixel*Frame) : 0.353
Stream size : 4.46 GiB (77%)
Title : hahay0yo@CHD
Writing library : x264 core 130 r2273 b3065e6
Encoding settings : cabac=1 / ref=9 / deblock=1:-3:-3 / analyse=0x3:0x113 / me=umh / subme=10 / psy=1 / psy_rd=1.10:0.10 / mixed_ref=1 / me_range=32 / chroma_me=1 / trellis=2 / 8x8dct=1 / cqm=0 / deadzone=21,11 / fast_pskip=0 / chroma_qp_offset=-2 / threads=12 / lookahead_threads=1 / sliced_threads=0 / nr=0 / decimate=1 / interlaced=0 / bluray_compat=0 / constrained_intra=0 / bframes=6 / b_pyramid=2 / b_adapt=2 / b_bias=0 / direct=3 / weightb=1 / open_gop=0 / weightp=2 / keyint=250 / keyint_min=23 / scenecut=40 / intra_refresh=0 / rc_lookahead=40 / rc=2pass / mbtree=0 / bitrate=7494 / ratetol=1.0 / qcomp=0.70 / qpmin=0 / qpmax=69 / qpstep=4 / cplxblur=20.0 / qblur=0.5 / vbv_maxrate=40000 / vbv_bufsize=30000 / nal_hrd=none / ip_ratio=1.40 / pb_ratio=1.30 / aq=2:0.90
Language : French
Default : Yes
Forced : No
Audio #1
ID : 2
Format : AC-3
Format/Info : Audio Coding 3
Mode extension : CM (complete main)
Format settings, Endianness : Big
Codec ID : A_AC3
Duration : 1h 27mn
Bit rate mode : Constant
Bit rate : 256 Kbps
Channel(s) : 2 channels
Channel positions : Front: L R
Sampling rate : 48.0 KHz
Bit depth : 16 bits
Compression mode : Lossy
Stream size : 160 MiB (3%)
Title : MVO – R5
Language : Russian
Default : Yes
Forced : No
Audio #2
ID : 3
Format : AC-3
Format/Info : Audio Coding 3
Mode extension : CM (complete main)
Format settings, Endianness : Big
Codec ID : A_AC3
Duration : 1h 27mn
Bit rate mode : Constant
Bit rate : 224 Kbps
Channel(s) : 2 channels
Channel positions : Front: L R
Sampling rate : 48.0 KHz
Bit depth : 16 bits
Compression mode : Lossy
Stream size : 140 MiB (2%)
Title : MVO – Первый канал
Language : Russian
Default : No
Forced : No
Audio #3
ID : 4
Format : DTS
Format/Info : Digital Theater Systems
Mode : 16
Format settings, Endianness : Big
Codec ID : A_DTS
Duration : 1h 27mn
Bit rate mode : Constant
Bit rate : 1 509 Kbps
Channel(s) : 6 channels
Channel positions : Front: L C R, Side: L R, LFE
Sampling rate : 48.0 KHz
Bit depth : 24 bits
Compression mode : Lossy
Stream size : 945 MiB (16%)
Title : Original
Language : French
Default : No
Forced : No
Text #1
ID : 5
Format : UTF-8
Codec ID : S_TEXT/UTF8
Codec ID/Info : UTF-8 Plain Text
Title : R5
Language : Russian
Default : No
Forced : No
Text #2
ID : 6
Format : UTF-8
Codec ID : S_TEXT/UTF8
Codec ID/Info : UTF-8 Plain Text
Title : Dmitry_Yudaev
Language : Russian
Default : No
Forced : No
Text #3
ID : 7
Format : UTF-8
Codec ID : S_TEXT/UTF8
Codec ID/Info : UTF-8 Plain Text
Title : Dim01
Language : Russian
Default : No
Forced : No
Text #4
ID : 8
Format : UTF-8
Codec ID : S_TEXT/UTF8
Codec ID/Info : UTF-8 Plain Text
Language : English
Default : No
Forced : No
Menu
00:00:00.000 : en:01. Logos / Opening credits
00:01:02.896 : en:02. No answer
00:03:32.671 : en:03. Not home
00:09:33.865 : en:04. The bike
00:17:20.248 : en:05. Samantha
00:23:44.465 : en:06. Search
00:29:17.839 : en:07. Dad
00:38:01.905 : en:08. Pitbull
00:49:45.524 : en:09. Bad influence
00:57:26.610 : en:10. Unwanted
01:11:41.214 : en:11. Apologies and lies
01:23:43.435 : en:12. End credits



Показать сообщения:    

Текущее время: 06-Дек 15:14

Часовой пояс: UTC + 3


Вы не можете начинать темы
Вы не можете отвечать на сообщения
Вы не можете редактировать свои сообщения
Вы не можете удалять свои сообщения
Вы не можете голосовать в опросах
Вы не можете прикреплять файлы к сообщениям
Вы не можете скачивать файлы