Трое негодяев в скрытой крепости / Kakushi-toride no san-akunin / The Hidden Fortress (Акира Куросава / Akira Kurosawa) [1958, Япония, драма, приключения, BDRemux 1080p] [Criterion Collection] 2x MVO + AVO (Живов) + Sub (Rus, Eng) + Original Jap


 

[Цитировать]

Трое негодяев в скрытой крепости / Kakushi-toride no san-akunin / The Hidden Fortress
Страна: Япония
Жанр: драма, приключения
Год выпуска: 1958
Продолжительность: 02:18:59
Перевод: Профессиональный (многоголосый закадровый) | Триумф Видео
Перевод: Профессиональный (многоголосый закадровый) | Cinema Prestige
Перевод: Авторский (одноголосый закадровый) | Юрий Живов
Cубтитры: русские, английские
Оригинальная аудиодорожка: японский-Режиссер: Акира Куросава / Akira Kurosawa
В ролях: Тосиро Мифунэ, Минору Чиаки, Каматари Фудзивара, Сусуму Фудзита, Такаси Симура, Миса Уехара, Эйко Миёси, Тошико Хигучи, Ю Фудзики, Ёсио Цутия
Описание: После междоусобной войны из разгромленного клана Акидзуки выжила только принцесса Юки. Ее необходимо переправить в безопасное место. Как, если враг не дремлет, а за голову девушки обещана хорошая награда? У преданного ей генерала Рокурота Макабе рождается дерзкий план. Он и Юки переодеваются крестьянами, в помощники нанимают двух придурковатых бродяг, на лошадей грузят валежник, в котором спрятано золото клана, и отправляются в смертельно опасный путь прямо по территории неприятеля...
IMDb || КиноПоиск-Тип релиза: BDRemux 1080p [Kakushi-toride no san-akunin 1958 1080p Blu-ray AVC DTS-HD MA 5.1 (thx violator99)]
Контейнер: MKV
Видео: MPEG-4 AVC Video, 1920x1080 at 23.976 fps, 31178 kbps
Аудио#1: Russian: 48 kHz, AC3, 2.0 ch, 192 kbps |Многоголосый закадровый, Триумф Видео|
Аудио#2: Russian: 48 kHz, AC3, 2.0 ch, 192 kbps |Многоголосый закадровый, Cinema Prestige|
Аудио#3: Russian: 48 kHz, AC3, 2.0 ch, 192 kbps |Авторский одноголосый закадровый, Ю.Живов|
Аудио#4: Japan: 48 kHz, LPCM, 1.0 ch, 1152 kbps
Аудио#5: English: 48 kHz, AC3, 1.0 ch, 192 kbps |Commentary by film historian Stephen Prince|
Формат субтитров: softsub (SRT)
Сэмпл

MediaInfo

General
Unique ID : 190975823693455387823457091202859843778 (0x8FAC9B127763719EBC10FBF895C6C0C2)
Complete name : L:\Скрытая крепость\The hidden fortress.1958.CC.BDRemux.mkv
Format : Matroska
Format version : Version 2
File size : 32.0 GiB
Duration : 2h 18mn
Overall bit rate mode : Variable
Overall bit rate : 33.0 Mbps
Movie name :
Encoded date : UTC 2014-03-19 22:49:47
Writing application : mkvmerge v5.0.1 ('Es ist Sommer') built on Nov 6 2011 16:23:40
Writing library : libebml v1.2.2 + libmatroska v1.3.0
Video
ID : 1
Format : AVC
Format/Info : Advanced Video Codec
Format profile : High@L4.1
Format settings, CABAC : Yes
Format settings, ReFrames : 4 frames
Codec ID : V_MPEG4/ISO/AVC
Duration : 2h 18mn
Bit rate mode : Variable
Maximum bit rate : 37.0 Mbps
Width : 1 920 pixels
Height : 1 080 pixels
Display aspect ratio : 16:9
Frame rate : 23.976 fps
Color space : YUV
Chroma subsampling : 4:2:0
Bit depth : 8 bits
Scan type : Progressive
Title : The hidden fortress.1958.CC.BDRemux.
Language : Japanese
Default : Yes
Forced : No
Audio #1
ID : 2
Format : AC-3
Format/Info : Audio Coding 3
Mode extension : CM (complete main)
Codec ID : A_AC3
Duration : 2h 18mn
Bit rate mode : Constant
Bit rate : 192 Kbps
Channel(s) : 2 channels
Channel positions : Front: L R
Sampling rate : 48.0 KHz
Bit depth : 16 bits
Compression mode : Lossy
Stream size : 191 MiB (1%)
Title : mvo, Триумф Видео
Language : Russian
Default : Yes
Forced : No
Audio #2
ID : 3
Format : AC-3
Format/Info : Audio Coding 3
Mode extension : CM (complete main)
Codec ID : A_AC3
Duration : 2h 18mn
Bit rate mode : Constant
Bit rate : 192 Kbps
Channel(s) : 2 channels
Channel positions : Front: L R
Sampling rate : 48.0 KHz
Bit depth : 16 bits
Compression mode : Lossy
Stream size : 191 MiB (1%)
Title : mvo, Cinema Prestige
Language : Russian
Default : No
Forced : No
Audio #3
ID : 4
Format : AC-3
Format/Info : Audio Coding 3
Mode extension : CM (complete main)
Codec ID : A_AC3
Duration : 2h 18mn
Bit rate mode : Constant
Bit rate : 192 Kbps
Channel(s) : 2 channels
Channel positions : Front: L R
Sampling rate : 48.0 KHz
Bit depth : 16 bits
Compression mode : Lossy
Stream size : 191 MiB (1%)
Title : avo, Ю.Живов
Language : Russian
Default : No
Forced : No
Audio #4
ID : 5
Format : PCM
Codec ID : A_PCM/INT/LIT
Duration : 2h 18mn
Bit rate mode : Constant
Sampling rate : 48.0 KHz
Bit depth : 24 bits
Title : Original
Language : Japanese
Default : No
Forced : No
Audio #5
ID : 6
Format : AC-3
Format/Info : Audio Coding 3
Mode extension : CM (complete main)
Codec ID : A_AC3
Duration : 2h 18mn
Bit rate mode : Constant
Bit rate : 192 Kbps
Channel(s) : 1 channel
Channel positions : Front: C
Sampling rate : 48.0 KHz
Bit depth : 16 bits
Compression mode : Lossy
Stream size : 191 MiB (1%)
Title : Commentary
Language : Russian
Default : No
Forced : No
Text #1
ID : 7
Format : UTF-8
Codec ID : S_TEXT/UTF8
Codec ID/Info : UTF-8 Plain Text
Language : Russian
Default : No
Forced : No
Text #2
ID : 8
Format : UTF-8
Codec ID : S_TEXT/UTF8
Codec ID/Info : UTF-8 Plain Text
Language : English
Default : No
Forced : No
Menu
00:00:00.000 : :An unlucky pair
00:05:08.141 : :Wanted
00:09:10.299 : :Close call
00:14:45.593 : :Surprise discovery
00:19:21.451 : :The general
00:27:00.118 : :Hidden fortress
00:31:18.293 : :Rokurota Makabe
00:36:36.194 : :A girl
00:41:11.051 : :Princess Yuki
00:45:12.459 : :Rokurota's ruse
00:52:07.624 : :A clever plan
00:57:20.103 : :Two hundred pieces
01:01:13.670 : :Leaving the fortress
01:05:18.205 : :No escape
01:10:48.994 : :Mind tricks
01:17:17.215 : :A woman's worth
01:22:24.648 : :Rokurota in action
01:26:07.245 : :Duel
01:35:20.297 : :Mounting frustration
01:41:15.110 : :Fire festival
01:49:04.955 : :Extra hands
01:54:49.257 : :Drawing fire
01:59:33.791 : :Scarred
02:05:59.635 : :An honorable man
02:11:18.078 : :Shifting fortunes
02:15:02.719 : :Lucky at last

Скриншоты

Toho vs Criterion _______________________



Показать сообщения:    

Текущее время: 09-Дек 20:28

Часовой пояс: UTC + 3


Вы не можете начинать темы
Вы не можете отвечать на сообщения
Вы не можете редактировать свои сообщения
Вы не можете удалять свои сообщения
Вы не можете голосовать в опросах
Вы не можете прикреплять файлы к сообщениям
Вы не можете скачивать файлы