Всё о моей матери / All About My Mother / Todo sobre mi madre (Педро Альмодовар / Pedro Almodovar) [1999, Франция, Испания, драма, BDRip 720p] MVO + AVO (Сербин) + Original Spa + Sub Rus


 

[Цитировать]

Всё о моей матери / All About My Mother / Todo sobre mi madre- Год выпуска: 1999
Выпущено: Франция, Испания
Жанр: драма
Продолжительность: 01:41:37
Перевод: Профессиональный (многоголосый, закадровый)
+ Авторский одноголосый Ю.Сербин
Оригинальная звуковая дорожка: Spanish
Субтитры: Russian, Romanian-Режиссер: Педро Альмодовар / Pedro Almodóvar
В ролях: Сесилия Рот, Мариса Паредес, Кандела Пенья, Антония Сан Хуан, Пенелопа Крус, Роса Мария Сарда, Фернандо Фернан Гомес, Тони Канто, Элой Асорин, Карлос Лосано
О фильме: На мать-одиночку Мануэлу обрушивается самое ужасное из земных несчастий — в автокатастрофе погибает её единственный сын Эстебан.
Подвергнувшись спонтанному порыву, убитая горем женщина возвращается в город своей бурной юности — Барселону. Там она встречается с призраком Прошлого, чьи уродливые когти безжалостно царапают судьбы людей в Настоящем. Мануэле предстоит встреча с отцом Эстебана и его окружением, от которых она сбежала шестнадцать лет назад.-CRiSC!
Релиз:
Источник: Todo Sobre Mi Madre 1999 Blu-ray GER 1080p VC-1 DTS-HD MA 5.1
Формат: MKV
Видео: AVC, 1280x546 (2.35:1), 23.976 fps, 8 794 Kbps (0.525 bit/pixel)
Аудио #01: Russian: 48 kHz, AC3, 3/2 (L,C,R,l,r) + LFE ch, ~448.00 kbps avg |Многоголосый закадровый|
Аудио #02: Russian: 48 kHz/16-bit, DTS, 3/2 (L,C,R,l,r) + LFE ch, ~1536.00 kbps avg |Одноголосый закадровый, Ю.Сербин|
Аудио #03: Spanish: 48 kHz/16-bit, DTS, 3/2 (L,C,R,l,r) + LFE ch, ~1536.00 kbps avg
Семпл-

Скриншоты


-

mInfo


Формат : Matroska
Версия формата : Version 2
Размер файла : 8,88 Гбайт
Продолжительность : 1 ч. 41 м.
Общий поток : 12,5 Мбит/сек
Название фильма : Todo sobre mi madre (1999) - Release for HDCLUB
Дата кодирования : UTC 2014-02-19 09:43:53
Программа кодирования : mkvmerge v5.7.0 ('The Whirlwind') built on Jul 8 2012 20:08:51
Библиотека кодирования : libebml v1.2.3 + libmatroska v1.3.0
Видео
Идентификатор : 1
Формат : AVC
Формат/Информация : Advanced Video Codec
Профиль формата : High@L4.1
Параметр CABAC формата : Да
Параметр ReFrames формата : 11 кадров
Идентификатор кодека : V_MPEG4/ISO/AVC
Продолжительность : 1 ч. 41 м.
Битрейт : 8796 Кбит/сек
Ширина : 1280 пикселей
Высота : 546 пикселей
Соотношение сторон : 2,35:1
Режим частоты кадров : Постоянный
Частота кадров : 23,976 кадра/сек
Цветовое пространство : YUV
Субдискретизация насыщенности : 4:2:0
Битовая глубина : 8 бит
Тип развёртки : Прогрессивная
Бит/(Пиксели*Кадры) : 0.525
Размер потока : 6,24 Гбайт (70%)
Библиотека кодирования : x264 core 114 r1913 5fd3dce
Настройки программы : cabac=1 / ref=11 / deblock=1:-3:-3 / analyse=0x3:0x133 / me=umh / subme=10 / psy=1 / psy_rd=1.00:0.00 / mixed_ref=1 / me_range=64 / chroma_me=1 / trellis=2 / 8x8dct=1 / cqm=0 / deadzone=21,11 / fast_pskip=0 / chroma_qp_offset=-2 / threads=12 / sliced_threads=0 / nr=0 / decimate=0 / interlaced=0 / constrained_intra=0 / bframes=9 / b_pyramid=2 / b_adapt=2 / b_bias=0 / direct=1 / weightb=1 / open_gop=0 / weightp=2 / keyint=250 / keyint_min=23 / scenecut=40 / intra_refresh=0 / rc_lookahead=40 / rc=crf / mbtree=0 / crf=18.0 / qcomp=0.60 / qpmin=0 / qpmax=69 / qpstep=4 / vbv_maxrate=50000 / vbv_bufsize=62500 / crf_max=0.0 / nal_hrd=none / ip_ratio=1.40 / pb_ratio=1.30 / aq=1:0.80
Язык : Spanish
Default : Да
Forced : Нет
Основные цвета : BT.709
Характеристики трансфера : BT.709
Коэффициенты матрицы : BT.709
Аудио #1
Идентификатор : 2
Формат : AC-3
Формат/Информация : Audio Coding 3
Расширение режима : CM (complete main)
Параметр Endianness формата : Big
Идентификатор кодека : A_AC3
Продолжительность : 1 ч. 41 м.
Вид битрейта : Постоянный
Битрейт : 448 Кбит/сек
Каналы : 6 каналов
Расположение каналов : Front: L C R, Side: L R, LFE
Частота : 48,0 КГц
Битовая глубина : 16 бит
Метод сжатия : С потерями
Размер потока : 326 Мбайт (4%)
Заголовок : |Многоголосый закадровый|
Язык : Russian
Default : Да
Forced : Нет
Аудио #2
Идентификатор : 3
Формат : DTS
Формат/Информация : Digital Theater Systems
Режим : 16
Параметр Endianness формата : Big
Идентификатор кодека : A_DTS
Продолжительность : 1 ч. 41 м.
Вид битрейта : Постоянный
Битрейт : 1509 Кбит/сек
Каналы : 6 каналов
Расположение каналов : Front: L C R, Side: L R, LFE
Частота : 48,0 КГц
Битовая глубина : 16 бит
Метод сжатия : С потерями
Размер потока : 1,07 Гбайт (12%)
Заголовок : |Одноголосый закадровый, Ю.Сербин|
Язык : Russian
Default : Нет
Forced : Нет
Аудио #3
Идентификатор : 4
Формат : DTS
Формат/Информация : Digital Theater Systems
Режим : 16
Параметр Endianness формата : Big
Идентификатор кодека : A_DTS
Продолжительность : 1 ч. 41 м.
Вид битрейта : Постоянный
Битрейт : 1509 Кбит/сек
Каналы : 6 каналов
Расположение каналов : Front: L C R, Side: L R, LFE
Частота : 48,0 КГц
Битовая глубина : 24 бит
Метод сжатия : С потерями
Размер потока : 1,07 Гбайт (12%)
Язык : Spanish
Default : Нет
Forced : Нет
Текст #1
Идентификатор : 5
Формат : UTF-8
Идентификатор кодека : S_TEXT/UTF8
Идентификатор кодека/Информация : UTF-8 Plain Text
Язык : Russian
Default : Нет
Forced : Нет
Текст #2
Идентификатор : 6
Формат : UTF-8
Идентификатор кодека : S_TEXT/UTF8
Идентификатор кодека/Информация : UTF-8 Plain Text
Язык : Romanian
Default : Нет
Forced : Нет
Меню
00:00:00.000 : en:00:00:00.000
00:08:12.200 : en:00:08:12.200
00:17:07.818 : en:00:17:07.818
00:24:37.768 : en:00:24:37.768
00:34:21.643 : en:00:34:21.643
00:41:27.235 : en:00:41:27.235
00:49:47.234 : en:00:49:47.234
00:59:23.477 : en:00:59:23.477
01:09:55.650 : en:01:09:55.650
01:16:28.209 : en:01:16:28.209
01:25:54.066 : en:01:25:54.066
01:36:18.272 : en:01:36:18.272
-



Показать сообщения:    

Текущее время: 24-Янв 12:14

Часовой пояс: UTC + 3


Вы не можете начинать темы
Вы не можете отвечать на сообщения
Вы не можете редактировать свои сообщения
Вы не можете удалять свои сообщения
Вы не можете голосовать в опросах
Вы не можете прикреплять файлы к сообщениям
Вы не можете скачивать файлы