Мальчик с велосипедом / Le gamin au velo / The Kid with a Bike (Жан-Пьер Дарденн, Люк Дарденн / Jean-Pierre Dardenne, Luc Dardenne) [2011, Бельгия, Франция, Италия, драма, BDRemux 1080p] 2 x MVO (R5, Первый канал) + Original Fre + Sub (Rus, Eng)


 

[Цитировать]

Мальчик с велосипедом / Le gamin au velo / The Kid with a Bike [Criterion #646]- Год выпуска: 2011
Страна: Бельгия, Франция, Италия
Жанр: драма
Продолжительность: 01:27:32
Перевод:
  • Профессиональный (многоголосый закадровый) R5
  • Профессиональный (многоголосый закадровый) Первый канал
Оригинальная аудиодорожка: Французская
Cубтитры: Русские (R5; Dmitry_Yudaev; Dim01), английские-Режиссер: Жан-Пьер Дарденн, Люк Дарденн / Jean-Pierre Dardenne, Luc Dardenne
В ролях: Тома Доре, Сесиль Де Франс, Жереми Ренье, Фабрицио Ронджоне, Эгон Ди Матео, Оливье Гурме, Батисте Сорнен, Сэмюэл Де Рийк, Карл Жадо, Клоди Дэлфоз-Описание:
Двенадцатилетний Сирил живет одной мыслью: найти своего отца, сдавшего его в детстве в приют. Мальчик убегает из детского дома, чтобы разыскать пропавшего папу. Его ловят, возвращают в приют, но он снова убегает, и тут происходит чудо... Случайно Сирил знакомится с Самантой, хозяйкой салона причесок, которая соглашается брать его к себе на выходные. Сирил не замечает любви Саманты, любви, в которой так нуждается.-За дорожку R5 спасибо andrmaj132.
| | Сэмпл-Качество: BDRemux 1080p (Le gamin au vélo 2011 1080p Blu-ray AVC DTS-HD MA 5.1, thx Artifaxx@AHD)
Контейнер: MKV
Видео: 1920x1080 (1.85:1), 23.976 fps, 34909 kbps
Аудио 1: Русский AC3 2.0, 48 kHz, 256 kbps — R5
Аудио 2: Русский AC3 2.0, 48 kHz, 224 kbps — Первый канал
Аудио 3: Французский DTS-HD MA 5.1, 48 kHz, 3236 kbps, 24-bit (DTS Core: 5.1, 48 kHz, 1509 kbps, 24-bit)
Формат субтитров: softsub (SRT)

Скриншоты


MI

General
Unique ID : 199892613614154800176798930039548293586 (0x9661EAC1F6663F2E8BCD6BB8AA6A31D2)
Complete name : Le.gamin.au.vélo.2011.1080p.Remux.mkv
Format : Matroska
Format version : Version 2
File size : 23.5 GiB
Duration : 1h 27mn
Overall bit rate mode : Variable
Overall bit rate : 38.4 Mbps
Movie name : Le gamin au vélo / Мальчик с велосипедом (2011) – RuTracker
Encoded date : UTC 2014-03-16 20:18:48
Writing application : mkvmerge v6.1.0 ('Old Devil') built on Mar 2 2013 14:32:37
Writing library : libebml v1.3.0 + libmatroska v1.4.0
Attachment : Yes
Video
ID : 1
Format : AVC
Format/Info : Advanced Video Codec
Format profile : High@L4.1
Format settings, CABAC : Yes
Format settings, ReFrames : 4 frames
Codec ID : V_MPEG4/ISO/AVC
Duration : 1h 27mn
Bit rate mode : Variable
Maximum bit rate : 37.0 Mbps
Width : 1 920 pixels
Height : 1 080 pixels
Display aspect ratio : 16:9
Frame rate mode : Constant
Frame rate : 23.976 fps
Color space : YUV
Chroma subsampling : 4:2:0
Bit depth : 8 bits
Scan type : Progressive
Title : Le gamin au vélo 2011 CC 1080p Blu-ray AVC DTS-HD MA 5.1-Artifaxx@AHD
Language : French
Default : Yes
Forced : No
Audio #1
ID : 2
Format : AC-3
Format/Info : Audio Coding 3
Mode extension : CM (complete main)
Format settings, Endianness : Big
Codec ID : A_AC3
Duration : 1h 27mn
Bit rate mode : Constant
Bit rate : 256 Kbps
Channel(s) : 2 channels
Channel positions : Front: L R
Sampling rate : 48.0 KHz
Bit depth : 16 bits
Compression mode : Lossy
Stream size : 160 MiB (1%)
Title : MVO – R5
Language : Russian
Default : Yes
Forced : No
Audio #2
ID : 3
Format : AC-3
Format/Info : Audio Coding 3
Mode extension : CM (complete main)
Format settings, Endianness : Big
Codec ID : A_AC3
Duration : 1h 27mn
Bit rate mode : Constant
Bit rate : 224 Kbps
Channel(s) : 2 channels
Channel positions : Front: L R
Sampling rate : 48.0 KHz
Bit depth : 16 bits
Compression mode : Lossy
Stream size : 140 MiB (1%)
Title : MVO – Первый канал
Language : Russian
Default : No
Forced : No
Audio #3
ID : 4
Format : DTS
Format/Info : Digital Theater Systems
Format profile : MA / Core
Mode : 16
Format settings, Endianness : Big
Codec ID : A_DTS
Duration : 1h 27mn
Bit rate mode : Variable
Bit rate : Unknown / 1 509 Kbps
Channel(s) : 6 channels
Channel positions : Front: L C R, Side: L R, LFE
Sampling rate : 48.0 KHz
Bit depth : 24 bits
Compression mode : Lossless / Lossy
Title : Original
Language : French
Default : No
Forced : No
Text #1
ID : 5
Format : UTF-8
Codec ID : S_TEXT/UTF8
Codec ID/Info : UTF-8 Plain Text
Title : R5
Language : Russian
Default : No
Forced : No
Text #2
ID : 6
Format : UTF-8
Codec ID : S_TEXT/UTF8
Codec ID/Info : UTF-8 Plain Text
Title : Dmitry_Yudaev
Language : Russian
Default : No
Forced : No
Text #3
ID : 7
Format : UTF-8
Codec ID : S_TEXT/UTF8
Codec ID/Info : UTF-8 Plain Text
Title : Dim01
Language : Russian
Default : No
Forced : No
Text #4
ID : 8
Format : UTF-8
Codec ID : S_TEXT/UTF8
Codec ID/Info : UTF-8 Plain Text
Language : English
Default : No
Forced : No
Menu
00:00:00.000 : en:01. Logos / Opening credits
00:01:02.896 : en:02. No answer
00:03:32.671 : en:03. Not home
00:09:33.865 : en:04. The bike
00:17:20.248 : en:05. Samantha
00:23:44.465 : en:06. Search
00:29:17.839 : en:07. Dad
00:38:01.905 : en:88. Pitbull
00:49:45.524 : en:09. Bad influence
00:57:26.610 : en:10. Unwanted
01:11:41.214 : en:11. Apologies and lies
01:23:43.435 : en:12. End credits



Показать сообщения:    

Текущее время: 06-Дек 17:05

Часовой пояс: UTC + 3


Вы не можете начинать темы
Вы не можете отвечать на сообщения
Вы не можете редактировать свои сообщения
Вы не можете удалять свои сообщения
Вы не можете голосовать в опросах
Вы не можете прикреплять файлы к сообщениям
Вы не можете скачивать файлы