Мушетт / Mouchette (Робер Брессон / Robert Bresson) [1967, Франция, драма, BDRemux 1080p] MVO + VO + Sub (2x Rus, Eng) + Original Fre


 

[Цитировать]

Мушетт / Mouchette
Страна: Франция
Жанр: драма
Год выпуска: 1967
Продолжительность: 01:21:16
Перевод: Профессиональный (многоголосый закадровый)
Перевод: Одноголосый закадровый
Cубтитры: русские, английские
Оригинальная аудиодорожка: французский-Режиссер: Робер Брессон / Robert Bresson
В ролях: Надин Нортье, Жан-Клод Гильбер, Жан Вимне, Мари Кардинал, Поль Эбер, Мари Сузини, Лилиан Принсе, Сюзанна Югвенен, Марин Трише, Раймонд Шабрун
Описание: По повести Жоржа Бернаноса.
Трагическая история девочки по имени Мушетт вырисовывает решительно безрадостное существование главной героини. Судьба взваливает на хрупкие девичьи плечи необходимость заботы над умирающей матерью и совсем маленьким братом, в то время как окончательно спивающийся отец едва ли способен на большее, чем опустошить очередной стакан. Из-за нищеты ее социальный статус в кругу сверстниц не выше статуса бродяги с улицы и в школе ей постоянно приходится испытывать унижения со стороны одноклассников и преподавателей.
Однажды ночью в лесу Мушетт встречает деревенского браконьера Арсена, который думает, что убил егеря Матьё, преследовавшего его. Арсен пытается использовать Мушетт для создания себе алиби…
IMDb || КиноПоиск-Тип релиза: BDRemux 1080p [Mouchette 1967 1080p GBR Blu-ray AVC LPCM 2.0-ESiR (thx DBaT)]
Контейнер: MKV
Видео: MPEG-4 AVC Video, 1920x1080 at 23.976 fps, 29910 kbps
Аудио#1: Russian: 48 kHz, AC3, 2.0 ch, 192 kbps |Многоголосый закадровый|
Аудио#2: Russian: 48 kHz, AC3, 2.0 ch, 128 kbps |Одноголосый закадровый|
Аудио#3: French: 48 kHz, LPCM, 2.0 ch, 2304 kbps
Формат субтитров: softsub (SRT)
Сэмпл

MediaInfo

General
Unique ID : 199158202610895640871343002275377747769 (0x95D4797FE6B0A6DCBAB53704D1469739)
Complete name : Mouchette.1967.BDRemux. rutracker.mkv
Format : Matroska
Format version : Version 2
File size : 18.5 GiB
Duration : 1h 21mn
Overall bit rate mode : Variable
Overall bit rate : 32.5 Mbps
Movie name : Release for RuTracker
Encoded date : UTC 2014-03-13 21:12:57
Writing application : mkvmerge v5.0.1 ('Es ist Sommer') built on Nov 6 2011 16:23:40
Writing library : libebml v1.2.2 + libmatroska v1.3.0
Video
ID : 1
Format : AVC
Format/Info : Advanced Video Codec
Format profile : High@L4.1
Format settings, CABAC : Yes
Format settings, ReFrames : 4 frames
Format settings, GOP : M=3, N=24
Codec ID : V_MPEG4/ISO/AVC
Duration : 1h 21mn
Bit rate mode : Variable
Maximum bit rate : 35.0 Mbps
Width : 1 920 pixels
Height : 1 080 pixels
Display aspect ratio : 16:9
Frame rate : 23.976 fps
Standard : NTSC
Color space : YUV
Chroma subsampling : 4:2:0
Bit depth : 8 bits
Scan type : Progressive
Title : Mouchette.1967.BDRemux. rutracker
Language : French
Default : Yes
Forced : No
Color primaries : BT.709-5, BT.1361, IEC 61966-2-4, SMPTE RP177
Transfer characteristics : BT.709-5, BT.1361
Matrix coefficients : BT.709-5, BT.1361, IEC 61966-2-4 709, SMPTE RP177
Audio #1
ID : 2
Format : AC-3
Format/Info : Audio Coding 3
Mode extension : CM (complete main)
Codec ID : A_AC3
Duration : 1h 21mn
Bit rate mode : Constant
Bit rate : 192 Kbps
Channel(s) : 2 channels
Channel positions : Front: L R
Sampling rate : 48.0 KHz
Bit depth : 16 bits
Compression mode : Lossy
Stream size : 112 MiB (1%)
Title : mvo
Language : Russian
Default : Yes
Forced : No
Audio #2
ID : 3
Format : AC-3
Format/Info : Audio Coding 3
Mode extension : CM (complete main)
Codec ID : A_AC3
Duration : 1h 21mn
Bit rate mode : Constant
Bit rate : 128 Kbps
Channel(s) : 2 channels
Channel positions : Front: L R
Sampling rate : 48.0 KHz
Bit depth : 16 bits
Compression mode : Lossy
Stream size : 74.4 MiB (0%)
Title : vo
Language : Russian
Default : No
Forced : No
Audio #3
ID : 4
Format : PCM
Codec ID : A_PCM/INT/LIT
Duration : 1h 21mn
Bit rate mode : Constant
Channel(s) : 2 channels
Sampling rate : 48.0 KHz
Bit depth : 24 bits
Language : French
Default : No
Forced : No
Text #1
ID : 5
Format : UTF-8
Codec ID : S_TEXT/UTF8
Codec ID/Info : UTF-8 Plain Text
Title : #1
Language : Russian
Default : No
Forced : No
Text #2
ID : 6
Format : UTF-8
Codec ID : S_TEXT/UTF8
Codec ID/Info : UTF-8 Plain Text
Title : #2
Language : Russian
Default : No
Forced : No
Text #3
ID : 7
Format : UTF-8
Codec ID : S_TEXT/UTF8
Codec ID/Info : UTF-8 Plain Text
Language : English
Default : No
Forced : No
Menu
00:00:00.000 : :1
00:06:20.963 : :2
00:14:12.184 : :3
00:20:55.963 : :4
00:27:00.910 : :5
00:34:41.496 : :6
00:41:16.807 : :7
00:51:09.024 : :8
01:04:29.866 : :9
01:12:03.193 : :10
01:15:16.595 : :11
01:18:46.096 : :12

Скриншоты




Показать сообщения:    

Текущее время: 08-Дек 01:19

Часовой пояс: UTC + 3


Вы не можете начинать темы
Вы не можете отвечать на сообщения
Вы не можете редактировать свои сообщения
Вы не можете удалять свои сообщения
Вы не можете голосовать в опросах
Вы не можете прикреплять файлы к сообщениям
Вы не можете скачивать файлы