Славное будущее / The Sweet Hereafter (Атом Эгоян / Atom Egoyan) [1997, Канада, драма, BDRip 1080p] MVO (НТН) + AVO (А.Гаврилов) + Sub Eng + Original Eng


 

[Цитировать]

Славное будущее / The Sweet Hereafter
Страна: Канада
Студия: Alliance Communications Corporation и др.
Жанр: драма
Год выпуска: 1997
Продолжительность: 01:52:09
Перевод: Профессиональный (многоголосый закадровый) НТН
Перевод 2: Авторский (одноголосый закадровый) А.Гаврилов
Cубтитры: английские
Оригинальная аудиодорожка: английский
Режиссер: Атом Эгоян / Atom Egoyan
В ролях: Иэн Холм, Каэртан Бэнкс, Сара Полли, Том МакКэмус, Габриель Роз, Альберта Уотсон, Мори Чайкин, Стефани Моргенстерн, Kirsten Kieferle, Арсинэ Ханджян
Описание: После трагической аварии школьного автобуса в городок приезжает адвокат Митчелл Стивенс. Он встречается с пострадавшими семьями, намереваясь предъявить от их имени иск к компании.
Однако, в результате выясняются определенные обстоятельства, заставившие Митчелла иначе оценить случившееся.

Сэмпл
Тип релиза: BDRip 1080p
Контейнер: MKV
Видео: MPEG4 AVC Video, H264, 16:9, 1920x800, 23.976 fps, 8000 kbps
Аудио: Russian (DTS, 6 ch, 1509 kbps, 24 bits, 48.0 KHz) - MVO НТН
Аудио 2: Russian (Dolby AC3, 2 ch, 192 kbps, 16 bits, 48.0 KHz) - А.Гаврилов
Аудио 3: English (DTS, 6 ch, 1509 kbps, 24 bits, 48.0 KHz) - оригинал
Аудио 4: English (Dolby AC3, 2 ch, 192 kbps, 16 bits, 48.0 KHz) - комментарии режиссёра
Формат субтитров: softsub (SRT)

MediaInfo

Общее
Уникальный идентификатор : 191032925078035036000448811090679213366 (0x8FB79A6343E5A9C8877ABBC760B0AD36)
Полное имя : D:\1\Slavnoe.budushee.1997.x264.BDRip.1080p\Slavnoe.budushee.1997.BDRip.1080p.mkv
Формат : Matroska
Версия формата : Version 4 / Version 2
Размер файла : 8,93 Гбайт
Продолжительность : 1 ч. 52 м.
Общий поток : 11,4 Мбит/сек
Название фильма : Славное будущее / The Sweet Hereafter 1997 BDRip -- STarankov
Дата кодирования : UTC 2014-03-16 18:43:52
Программа кодирования : mkvmerge v6.1.0 ('Old Devil') built on Mar 2 2013 14:32:37
Библиотека кодирования : libebml v1.3.0 + libmatroska v1.4.0
Видео
Идентификатор : 1
Формат : AVC
Формат/Информация : Advanced Video Codec
Профиль формата : High@L4.1
Параметр CABAC формата : Да
Параметр ReFrames формата : 4 кадра
Идентификатор кодека : V_MPEG4/ISO/AVC
Продолжительность : 1 ч. 52 м.
Битрейт : 8000 Кбит/сек
Ширина : 1920 пикселей
Высота : 800 пикселей
Соотношение сторон : 2,40:1
Режим частоты кадров : Постоянный
Частота кадров : 23,976 кадра/сек
Цветовое пространство : YUV
Субдискретизация насыщенности : 4:2:0
Битовая глубина : 8 бит
Тип развёртки : Прогрессивная
Бит/(Пиксели*Кадры) : 0.217
Размер потока : 6,09 Гбайт (68%)
Библиотека кодирования : x264 core 125 r2200 999b753
Настройки программы : cabac=1 / ref=4 / deblock=1:0:0 / analyse=0x3:0x113 / me=umh / subme=9 / psy=1 / psy_rd=1.00:0.15 / mixed_ref=1 / me_range=24 / chroma_me=1 / trellis=2 / 8x8dct=1 / cqm=0 / deadzone=21,11 / fast_pskip=0 / chroma_qp_offset=-3 / threads=6 / lookahead_threads=1 / sliced_threads=0 / nr=0 / decimate=1 / interlaced=0 / bluray_compat=0 / constrained_intra=0 / bframes=8 / b_pyramid=2 / b_adapt=2 / b_bias=0 / direct=3 / weightb=1 / open_gop=0 / weightp=2 / keyint=230 / keyint_min=23 / scenecut=40 / intra_refresh=0 / rc=2pass / mbtree=0 / bitrate=8000 / ratetol=1.0 / qcomp=0.60 / qpmin=0 / qpmax=69 / qpstep=4 / cplxblur=20.0 / qblur=0.5 / ip_ratio=1.40 / pb_ratio=1.30 / aq=1:1.00
Язык : English
Default : Да
Forced : Нет
Аудио #1
Идентификатор : 2
Формат : DTS
Формат/Информация : Digital Theater Systems
Режим : 16
Параметр Endianness формата : Big
Идентификатор кодека : A_DTS
Продолжительность : 1 ч. 52 м.
Вид битрейта : Постоянный
Битрейт : 1509 Кбит/сек
Каналы : 6 каналов
Расположение каналов : Front: L C R, Side: L R, LFE
Частота : 48,0 КГц
Битовая глубина : 24 бит
Метод сжатия : С потерями
Размер потока : 1,18 Гбайт (13%)
Заголовок : MVO (HTH)
Язык : Russian
Default : Да
Forced : Нет
Аудио #2
Идентификатор : 3
Формат : AC-3
Формат/Информация : Audio Coding 3
Расширение режима : CM (complete main)
Параметр Endianness формата : Big
Идентификатор кодека : A_AC3
Продолжительность : 1 ч. 52 м.
Вид битрейта : Постоянный
Битрейт : 192 Кбит/сек
Каналы : 2 канала
Расположение каналов : Front: L R
Частота : 48,0 КГц
Битовая глубина : 16 бит
Метод сжатия : С потерями
Размер потока : 154 Мбайт (2%)
Заголовок : А.Гаврилов
Язык : Russian
Default : Нет
Forced : Нет
Аудио #3
Идентификатор : 4
Формат : DTS
Формат/Информация : Digital Theater Systems
Режим : 16
Параметр Endianness формата : Big
Идентификатор кодека : A_DTS
Продолжительность : 1 ч. 52 м.
Вид битрейта : Постоянный
Битрейт : 1509 Кбит/сек
Каналы : 6 каналов
Расположение каналов : Front: L C R, Side: L R, LFE
Частота : 48,0 КГц
Битовая глубина : 24 бит
Метод сжатия : С потерями
Размер потока : 1,18 Гбайт (13%)
Язык : English
Default : Нет
Forced : Нет
Аудио #4
Идентификатор : 5
Формат : AC-3
Формат/Информация : Audio Coding 3
Расширение режима : CM (complete main)
Параметр Endianness формата : Big
Идентификатор кодека : A_AC3
Продолжительность : 1 ч. 52 м.
Вид битрейта : Постоянный
Битрейт : 192 Кбит/сек
Каналы : 2 канала
Расположение каналов : Front: L R
Частота : 48,0 КГц
Битовая глубина : 16 бит
Метод сжатия : С потерями
Размер потока : 154 Мбайт (2%)
Заголовок : комментарии режиссера
Язык : English
Default : Нет
Forced : Нет
Текст
Идентификатор : 6
Формат : UTF-8
Идентификатор кодека : S_TEXT/UTF8
Идентификатор кодека/Информация : UTF-8 Plain Text
Язык : English
Default : Нет
Forced : Нет

Скриншоты




Показать сообщения:    

Текущее время: 08-Дек 17:24

Часовой пояс: UTC + 3


Вы не можете начинать темы
Вы не можете отвечать на сообщения
Вы не можете редактировать свои сообщения
Вы не можете удалять свои сообщения
Вы не можете голосовать в опросах
Вы не можете прикреплять файлы к сообщениям
Вы не можете скачивать файлы