Объединенная зона безопасности / Joint Security Area (Пак Чхан Ук / Park Chan Wook) [2000, Южная Корея, драма, триллер, военный, HDTVRip 720p] DVO (Лицензия)


 

[Цитировать]

Объединенная зона безопасности / Joint Security Area
Страна: Южная Корея
Жанр: драма, триллер, военный
Год выпуска: 2000
Продолжительность: 1:45:34
Перевод: Профессиональный (двухголосый закадровый) Лицензия
Cубтитры: нет
Оригинальная аудиодорожка: нет
Режиссер: Пак Чхан Ук / Park Chan Wook
В ролях: Ли Йон-Э, Ли Бён-Хон, Сон Кан-Хо, Ким Тэ-Ву, Шин Ха-Кьюн, Кристоф Хофрихтер, Херберт Ульрих...
Описание: Договор между СССР и США разделил Корею на два отдельных государства: Северную и Южную. В 1950 году началась Корейская война, в которой было убито и ранено пять миллионов человек — одна шестая всего населения страны...В 1953 году в поселке Панмунджом воюющие стороны подписали Соглашение о прекращении огня. И хотя война все еще продолжалась, вдоль демаркационной линии в радиусе двух километров к югу и северу от Панмунджома, появилась демилитаризованная зона. Внутри ее по кругу диаметром 800 метров была очерчена граница так называемой "деревни перемирия".
В данном рипе отсутствуют титры в начале и конце
На раздаче с 14:00-15:00 до 3-4 часов ночи
Сэмпл: http://rusfolder.com/40059063
Тип релиза: HDTVRip 720p
Контейнер: MKV
Видео: 1280x544 (2,35:1); 5268 Kbps; 23,976 fps
Аудио: 48 kHz, AC3 Dolby Digital, 3/2 (L,C,R,l,r) + LFE ch, ~448.00 kbps avg

MediaInfo

Общее
Уникальный идентификатор : 212605879888378059373526288534650882370 (0x9FF2672DD32BFD8196DB3257B2CE0942)
Полное имя : M:\HD\JSA\Joint.Security.Area.2000.HDTV.720p.x264.mkv
Формат : Matroska
Версия формата : Version 2
Размер файла : 4,42 Гбайт
Продолжительность : 1 ч. 45 м.
Общий поток : 5833 Кбит/сек
Дата кодирования : UTC 2014-03-04 14:29:50
Программа кодирования : mkvmerge v4.0.0 ('The Stars were mine') сборка от Jun 6 2010 16:18:42
Библиотека кодирования : libebml v1.0.0 + libmatroska v1.0.0
Видео
Идентификатор : 1
Формат : AVC
Формат/Информация : Advanced Video Codec
Профиль формата : High@L4.1
Параметр CABAC формата : Да
Параметр ReFrames формата : 8 кадров
Идентификатор кодека : V_MPEG4/ISO/AVC
Продолжительность : 1 ч. 45 м.
Битрейт : 5268 Кбит/сек
Номинальный битрейт : 5540 Кбит/сек
Ширина : 1280 пикселей
Высота : 544 пикселя
Соотношение сторон : 2,35:1
Режим частоты кадров : Постоянный
Частота кадров : 23,976 кадра/сек
Цветовое пространство : YUV
Субдискретизация насыщенности : 4:2:0
Битовая глубина : 8 бит
Тип развёртки : Прогрессивная
Бит/(Пиксели*Кадры) : 0.316
Размер потока : 4,00 Гбайт (90%)
Заголовок : 2975581@HDCTV
Библиотека кодирования : x264 core 120 r2164 da19765
Настройки программы : cabac=1 / ref=8 / deblock=1:-1:-1 / analyse=0x3:0x113 / me=umh / subme=9 / psy=1 / psy_rd=1.00:0.00 / mixed_ref=1 / me_range=32 / chroma_me=1 / trellis=1 / 8x8dct=1 / cqm=0 / deadzone=21,11 / fast_pskip=1 / chroma_qp_offset=-2 / threads=4 / sliced_threads=0 / nr=0 / decimate=1 / interlaced=0 / bluray_compat=0 / constrained_intra=0 / bframes=3 / b_pyramid=2 / b_adapt=2 / b_bias=0 / direct=3 / weightb=1 / open_gop=0 / weightp=2 / keyint=240 / keyint_min=23 / scenecut=40 / intra_refresh=0 / rc_lookahead=60 / rc=2pass / mbtree=1 / bitrate=5540 / ratetol=1.0 / qcomp=0.60 / qpmin=0 / qpmax=69 / qpstep=4 / cplxblur=20.0 / qblur=0.5 / vbv_maxrate=12000 / vbv_bufsize=12000 / nal_hrd=none / ip_ratio=1.40 / aq=1:1.00
Язык : Korean
Default : Нет
Forced : Нет
Аудио
Идентификатор : 2
Формат : AC-3
Формат/Информация : Audio Coding 3
Расширение режима : CM (complete main)
Параметр Endianness формата : Big
Идентификатор кодека : A_AC3
Продолжительность : 1 ч. 45 м.
Вид битрейта : Постоянный
Битрейт : 448 Кбит/сек
Каналы : 6 каналов
Расположение каналов : Front: L C R, Side: L R, LFE
Частота : 48,0 КГц
Битовая глубина : 16 бит
Метод сжатия : С потерями
Задержка видео : 524 мс.
Размер потока : 348 Мбайт (8%)
Default : Нет
Forced : Нет

Скриншоты

Уважаемые "Качки"! После скачивания, не уходите с раздачи - дайте возможность скачать другим! Благодарю за понимание!



Показать сообщения:    

Текущее время: 05-Дек 13:33

Часовой пояс: UTC + 3


Вы не можете начинать темы
Вы не можете отвечать на сообщения
Вы не можете редактировать свои сообщения
Вы не можете удалять свои сообщения
Вы не можете голосовать в опросах
Вы не можете прикреплять файлы к сообщениям
Вы не можете скачивать файлы