Одуванчик / Dandelion / Tampopo (Дзюдзо Итами / Juzo Itami) [1985, Япония, комедия, BDRip 720p] AVO (Алексеев) + Original (Jap) + Sub (Rus, Eng)


 

[Цитировать]

Одуванчик / Dandelion / Tampopo«The first Japanese noodle western!»- Страна: Япония
Жанр: комедия
Год выпуска: 1985
Продолжительность: 01:54:19-Перевод: Авторский (одноголосый закадровый) А.Алексеев
Оригинальная аудиодорожка: Japanese
Cубтитры: Russian, English
Навигация по главам: присутствуют-Режиссер: Дзюдзо Итами / Juzo Itami
В ролях: Цутому Ямадзаки, Нобуко Миямото, Кен Ватанабе, Кодзи Якусё, Рикия Ясуока, Марио Абе, Идзуми Хара, Исао Хасидзумэ, Хисаси Игава-Описание: Лихой водитель грузовика в ковбойской шляпе помогает симпатичной вдове превратить ее скромную лапшевню в заведение, куда люди стали приходить из других кварталов. Он и его товарищи помогли ей узнать рецепты блюд, научиться мастерски их готовить, изменить интерьер заведения.-imdb.com: 7.90 (7863)
kinopoisk.ru: 7.388 (81)
Download sample-Качество видео: BDRip 720p | исх. Tampopo 1985 Blu-ray 1080p AVC LPCM 2.0-CtrlHD
Формат видео: MKV-Видео: 1280x688 at 23.976 fps, x264@L4.1 , ~8386 kbps avg
Аудио №1: 48 kHz, AC3, 2/0 (L,R) ch, ~224.00 kbps avg | Авторский (одноголосый закадровый) А.Алексеев
Аудио №2: 48 kHz, AC3, 2/0 (L,R) ch, ~384.00 kbps avg | Japanese-

Дополнительно

Сохранены оригинальные чаптеры как на Blu-ray.
Ремукс сделан на основе японского издания. Детализация значительно лучше, чем в немецком издании, но имеется пересвет. Надеюсь, кто-нибудь сделает рип с исправленными уровнями.
За русскую дорожку спасибо colt451. Дорожку почистил, но качество все равно оставляет желать лучшего. Да и сам перевод не самый лучший: не все переведено, есть отсебятина.
За русские субтитры спасибо авторам. Перевод: arexibo. Редакторы: Akuli, lil-kodomo, Yule. Перевод отличный, рекомендую просмотр именно с субтитрами.
Английские субтитры – с немецкого BD.
Рип от CtrlHD

MediaInfo

General
Unique ID : 174600630455007739004880301183551869875 (0x835ADBB6494E1EE69D7B73CCB16713B3)
Complete name : D:\Фильмы\Tampopo.1985.720p.BluRay.Rus.Jap.HDCLUB.mkv
Format : Matroska
Format version : Version 4 / Version 2
File size : 7.18 GiB
Duration : 1h 54mn
Overall bit rate : 8 997 Kbps
Encoded date : UTC 2014-03-03 20:17:05
Writing application : mkvmerge v6.7.0 ('Back to the Ground') 32bit built on Jan 10 2014 19:46:37
Writing library : libebml v1.3.0 + libmatroska v1.4.1
Video
ID : 1
Format : AVC
Format/Info : Advanced Video Codec
Format profile : High@L4.1
Format settings, CABAC : Yes
Format settings, ReFrames : 9 frames
Codec ID : V_MPEG4/ISO/AVC
Duration : 1h 54mn
Bit rate : 8 210 Kbps
Width : 1 280 pixels
Height : 688 pixels
Display aspect ratio : 1.85:1
Frame rate mode : Constant
Frame rate : 23.976 fps
Color space : YUV
Chroma subsampling : 4:2:0
Bit depth : 8 bits
Scan type : Progressive
Bits/(Pixel*Frame) : 0.389
Stream size : 6.56 GiB (91%)
Title : Tampopo (1985)
Writing library : x264 core 125 r2200kMod 999b753
Encoding settings : cabac=1 / ref=9 / deblock=1:-3:-3 / analyse=0x3:0x133 / me=umh / subme=11 / psy=1 / fade_compensate=0.00 / psy_rd=1.10:0.00 / mixed_ref=1 / me_range=32 / chroma_me=1 / trellis=2 / 8x8dct=1 / cqm=0 / deadzone=21,11 / fast_pskip=0 / chroma_qp_offset=-2 / threads=6 / lookahead_threads=1 / sliced_threads=0 / nr=0 / decimate=0 / interlaced=0 / bluray_compat=0 / constrained_intra=0 / bframes=7 / b_pyramid=2 / b_adapt=2 / b_bias=0 / direct=3 / weightb=1 / open_gop=0 / weightp=2 / keyint=250 / keyint_min=23 / scenecut=40 / intra_refresh=0 / rc=crf / mbtree=0 / crf=17.0000 / qcomp=0.80 / qpmin=10 / qpmax=51 / qpstep=4 / ip_ratio=1.30 / pb_ratio=1.20 / aq=1:0.50
Language : Japanese
Default : No
Forced : No
Audio #1
ID : 2
Format : AC-3
Format/Info : Audio Coding 3
Mode extension : CM (complete main)
Format settings, Endianness : Big
Codec ID : A_AC3
Duration : 1h 54mn
Bit rate mode : Constant
Bit rate : 224 Kbps
Channel count : 2 channels
Channel positions : Front: L R
Sampling rate : 48.0 KHz
Bit depth : 16 bits
Compression mode : Lossy
Stream size : 183 MiB (2%)
Title : Одноголосый закадровый, А.Алексеев
Language : Russian
Default : Yes
Forced : No
Audio #2
ID : 3
Format : AC-3
Format/Info : Audio Coding 3
Mode extension : CM (complete main)
Format settings, Endianness : Big
Codec ID : A_AC3
Duration : 1h 54mn
Bit rate mode : Constant
Bit rate : 384 Kbps
Channel count : 2 channels
Channel positions : Front: L R
Sampling rate : 48.0 KHz
Bit depth : 16 bits
Compression mode : Lossy
Stream size : 314 MiB (4%)
Language : Japanese
Default : No
Forced : No
Text #1
ID : 4
Format : UTF-8
Codec ID : S_TEXT/UTF8
Codec ID/Info : UTF-8 Plain Text
Language : Russian
Default : No
Forced : No
Text #2
ID : 5
Format : UTF-8
Codec ID : S_TEXT/UTF8
Codec ID/Info : UTF-8 Plain Text
Language : English
Default : No
Forced : No
Menu
00:00:00.000 : en:Chapter 1
00:02:46.833 : en:Chapter 2
00:07:11.389 : en:Chapter 3
00:17:15.660 : en:Chapter 4
00:19:36.592 : en:Chapter 5
00:23:48.218 : en:Chapter 6
00:27:17.261 : en:Chapter 7
00:29:09.039 : en:Chapter 8
00:36:00.075 : en:Chapter 9
00:40:31.763 : en:Chapter 10
00:48:03.005 : en:Chapter 11
00:52:03.871 : en:Chapter 12
00:55:29.326 : en:Chapter 13
00:57:03.295 : en:Chapter 14
01:02:57.190 : en:Chapter 15
01:07:20.370 : en:Chapter 16
01:16:04.310 : en:Chapter 17
01:22:06.463 : en:Chapter 18
01:24:36.113 : en:Chapter 19
01:28:48.907 : en:Chapter 20
01:32:46.478 : en:Chapter 21
01:40:52.255 : en:Chapter 22
01:44:32.308 : en:Chapter 23
01:50:52.771 : en:Chapter 24

Скриншоты




Показать сообщения:    

Текущее время: 03-Дек 12:36

Часовой пояс: UTC + 3


Вы не можете начинать темы
Вы не можете отвечать на сообщения
Вы не можете редактировать свои сообщения
Вы не можете удалять свои сообщения
Вы не можете голосовать в опросах
Вы не можете прикреплять файлы к сообщениям
Вы не можете скачивать файлы