Meланхoлия / Melаnchоliа (Ларс фон Триер / Lars von Trier) [2011, Германия, Дания, Швеция, Франция, фантастика, драма, BDRip 720p] MVO + Original Eng + Sub (Rus, Eng)


 

[Цитировать]

Меланхолия / MelancholiaГод выпуска: 2011
Страна: Германия, Дания, Швеция, Франция
Жанр: драма
Продолжительность: 02:09:59
Перевод: профессиональный (многоголосый закадровый)
Субтитры: русские, английские
Оригинальная аудиодорожка: английский
Режиссер: Ларс фон Триер / Lars von Trier
В ролях: Кирстен Данст, Шарлотта Генсбур, Александр Скарсгард, Брэйди Корбет, Камерон Спурр, Шарлотта Рэмплинг, Еспер Кристенсен, Джон Хёрт, Стеллан Скарсгард, Удо Кир
Описание: Свадебная вечеринка оборачивается катастрофой вселенского масштаба: обнаруживается, что на Землю надвигается планета под названием Меланхолия. С каждым часом она все ближе, и шансов на выживание у человечества все меньше…
Рейтинг MPAA: -Доп. информация:
IMDb: 7.5/10
Kinopoisk: 7.455/10
Sample-

Награды и номинации

Каннский кинофестиваль, 2011 год
Победитель (1):
* Лучшая женская роль (Кирстен Данст)
Номинации (1):
* Золотая пальмовая ветвь
Качество: BDRip 720p (Blu-ray 1080p)
Формат: MKV
Видео кодек: H.264
Аудио кодек: AC3
Видео: 1280x544 (2.35:1), 3429 kbps, 25 fps
Аудио №1: Russian, AC3, 6ch, 48 kHz, 640 kbps (Многоголосый)
Аудио №2: English, AC3, 6ch, 48 kHz, 640 kbps (Оригинал)
Субтитры №1: Russian
Субтитры №2: English-

Сравнение с исходником

Rip

Source

MediaInfo

Format : Matroska
File size : 4.27 GiB
Duration : 2h 9mn
Overall bit rate : 4 712 Kbps
Movie name : Melancholia (2011) BDRip
Encoded date : UTC 2011-11-27 14:11:34
Writing application : mkvmerge v5.0.1 ('Es ist Sommer') built on Oct 9 2011 11:55:43
Writing library : libebml v1.2.2 + libmatroska v1.3.0
Cover : Yes
Video
ID : 1
Format : AVC
Format/Info : Advanced Video Codec
Format profile : High@L4.0
Format settings, CABAC : Yes
Format settings, ReFrames : 11 frames
Codec ID : V_MPEG4/ISO/AVC
Duration : 2h 9mn
Bit rate : 3 338 Kbps
Width : 1 280 pixels
Height : 544 pixels
Display aspect ratio : 2.35:1
Frame rate : 25.000 fps
Color space : YUV
Chroma subsampling : 4:2:0
Bit depth : 8 bits
Scan type : Progressive
Bits/(Pixel*Frame) : 0.192
Stream size : 3.03 GiB (71%)
Writing library : x264 core 119 r2106kMod 07efeb4
Encoding settings : cabac=1 / ref=11 / deblock=1:-2:-2 / analyse=0x3:0x133 / me=umh / subme=11 / psy=1 / fade_compensate=0.00 / psy_rd=0.90:0.03 / mixed_ref=1 / me_range=32 / chroma_me=1 / trellis=2 / 8x8dct=1 / cqm=0 / deadzone=21,11 / fast_pskip=1 / chroma_qp_offset=-3 / threads=6 / sliced_threads=0 / nr=0 / decimate=1 / interlaced=0 / bluray_compat=0 / constrained_intra=0 / bframes=11 / b_pyramid=2 / b_adapt=2 / b_bias=0 / direct=1 / weightb=1 / open_gop=0 / weightp=2 / keyint=250 / keyint_min=25 / scenecut=40 / intra_refresh=0 / rc=crf / mbtree=0 / crf=17.8500 / qcomp=0.65 / qpmin=0 / qpmax=69 / qpstep=4 / ip_ratio=1.40 / pb_ratio=1.20 / aq=3:0.80
Language : English
Matrix coefficients : BT.709-5, BT.1361, IEC 61966-2-4 709, SMPTE RP177
Audio #1
ID : 2
Format : AC-3
Format/Info : Audio Coding 3
Mode extension : CM (complete main)
Codec ID : A_AC3
Duration : 2h 9mn
Bit rate mode : Constant
Bit rate : 640 Kbps
Channel(s) : 6 channels
Channel positions : Front: L C R, Side: L R, LFE
Sampling rate : 48.0 KHz
Bit depth : 16 bits
Compression mode : Lossy
Stream size : 595 MiB (14%)
Title : MVO
Language : Russian
Audio #2
ID : 3
Format : AC-3
Format/Info : Audio Coding 3
Mode extension : CM (complete main)
Codec ID : A_AC3
Duration : 2h 9mn
Bit rate mode : Constant
Bit rate : 640 Kbps
Channel(s) : 6 channels
Channel positions : Front: L C R, Side: L R, LFE
Sampling rate : 48.0 KHz
Bit depth : 16 bits
Compression mode : Lossy
Stream size : 595 MiB (14%)
Title : Original
Language : English
Text #1
ID : 4
Format : UTF-8
Codec ID : S_TEXT/UTF8
Codec ID/Info : UTF-8 Plain Text
Language : Russian
Text #2
ID : 5
Format : UTF-8
Codec ID : S_TEXT/UTF8
Codec ID/Info : UTF-8 Plain Text
Language : English
Menu
00:00:00.000 : en:00:00:00.000
00:08:13.680 : en:00:08:13.680
00:24:09.800 : en:00:24:09.800
00:33:30.320 : en:00:33:30.320
00:45:03.440 : en:00:45:03.440
00:53:08.960 : en:00:53:08.960
01:03:26.240 : en:01:03:26.240
01:20:03.280 : en:01:20:03.280
01:33:44.560 : en:01:33:44.560
01:47:56.200 : en:01:47:56.200
01:57:28.840 : en:01:57:28.840
02:03:48.280 : en:02:03:48.280

x264 log

x264 [info]: frame I:1065 Avg QP:13.05 size: 80637 PSNR Mean Y:50.54 U:54.78 V:55.54 Avg:51.42 Global:50.34
x264 [info]: frame P:44738 Avg QP:14.79 size: 29334 PSNR Mean Y:50.48 U:55.38 V:56.32 Avg:51.40 Global:48.90
x264 [info]: frame B:149024 Avg QP:16.71 size: 13034 PSNR Mean Y:47.96 U:52.90 V:54.02 Avg:48.92 Global:47.93
x264 [info]: consecutive B-frames: 3.2% 3.6% 11.4% 14.5% 14.8% 38.5% 6.2% 1.2% 3.2% 0.7% 1.2% 1.5%
x264 [info]: mb I I16..4: 10.4% 76.2% 13.4%
x264 [info]: mb P I16..4: 2.3% 16.9% 1.6% P16..4: 27.3% 31.2% 7.6% 2.3% 0.2% skip:10.6%
x264 [info]: mb B I16..4: 0.4% 1.8% 0.2% B16..8: 35.7% 22.3% 3.3% direct: 7.1% skip:29.2% L0:43.4% L1:46.5% BI:10.0%
x264 [info]: 8x8 transform intra:79.4% inter:61.8%
x264 [info]: coded y,uvDC,uvAC intra: 78.4% 73.4% 56.2% inter: 26.2% 26.0% 6.2%
x264 [info]: i16 v,h,dc,p: 37% 10% 5% 48%
x264 [info]: i8 v,h,dc,ddl,ddr,vr,hd,vl,hu: 8% 7% 11% 9% 13% 13% 12% 12% 14%
x264 [info]: i4 v,h,dc,ddl,ddr,vr,hd,vl,hu: 10% 8% 15% 8% 15% 13% 11% 9% 11%
x264 [info]: i8c dc,h,v,p: 42% 26% 18% 14%
x264 [info]: Weighted P-Frames: Y:13.8% UV:6.8%
x264 [info]: ref P L0: 47.9% 7.7% 18.2% 6.8% 5.2% 3.8% 3.2% 1.9% 1.8% 1.6% 1.5% 0.4% 0.1%
x264 [info]: ref B L0: 73.3% 11.8% 5.5% 2.8% 2.0% 1.6% 1.3% 0.9% 0.5% 0.2%
x264 [info]: ref B L1: 92.6% 7.4%
x264 [info]: SSIM Mean Y:0.9877439 (19.116db)
x264 [info]: PSNR Mean Y:48.550 U:53.479 V:54.561 Avg:49.501 Global:48.142 kb/s:3429.23
encoded 194827 frames, 3.33 fps, 3429.23 kb/s
x264 [info]: ended at Sun Nov 27 15:50:07 2011
x264 [info]: encoding duration 16:15:00

-

Скриншоты:


-Релиз от группы -



Показать сообщения:    

Текущее время: 08-Дек 12:56

Часовой пояс: UTC + 3


Вы не можете начинать темы
Вы не можете отвечать на сообщения
Вы не можете редактировать свои сообщения
Вы не можете удалять свои сообщения
Вы не можете голосовать в опросах
Вы не можете прикреплять файлы к сообщениям
Вы не можете скачивать файлы