Meланхoлия / Melаnchоliа (Ларс фон Триер / Lars von Trier) [2011, Германия, Дания, Швеция, Франция, фантастика, драма, BDRip 720p] MVO + Original Eng + Sub Rus, Eng


 

[Цитировать]

МеланхолияMelancholia- Страна: Германия, Дания, Швеция, Франция
Жанр: фантастика, драма
Год выпуска: 2011
Продолжительность: 02:09:59-Перевод: Профессиональный (многоголосый, закадровый)
Оригинальная аудио дорожка: английский
Субтитры: русские (Full), английские (Full)-Режиссер: Ларс фон Триер / Lars von Trier
В ролях: Кирстен Данст (Justine), Шарлотта Генсбур (Claire), Александр Скарсгард (Michael), Кифер Сазерленд (John), Брэйди Корбет (Tim), Шарлотта Рэмплинг (Gaby), Еспер Кристенсен (Little Father), Джон Хёрт (Dexter), Стеллан Скарсгард (Jack), Удо Кир (Wedding planner), Cameron Spurr (Leo), Джеймс Кэгнард (Michael's Father)
Описание: Свадебная вечеринка оборачивается катастрофой вселенского масштаба: обнаруживается, что на Землю надвигается планета под названием Меланхолия. С каждым часом она все ближе, и шансов на выживание у человечества все меньше…


MPAA: R - Лицам до 17 лет обязательно присутствие взрослого-Релиз от: HQFans
Качество: BDRip/720p (by HQFans)
Формат: MKV
Видео: 1280x544, AVC, 25 fps, 4 959 kbps
Аудио №1: Russian / DTS / 5.1 / 48 kHz / 1 536 kbps / 24-bit || Профессиональный (многоголосый, закадровый) {R5}*
Аудио №2: English / DTS / 5.1 / 48 kHz / 1 536 kbps / 24-bit
Навигация по главам: 12 шт.

Sample

Media Info

General
Unique ID : 253116818180285802030634461017211151819 (0xBE6C86A50FD2243889C3D717EEAC25CB)
Complete name : Меланхолия__Melancholia [2011.BDRip.720p.MVO.Eng.Subs]-HQFans.mkv
Format : Matroska
Format version : Version 2
File size : 7.24 GiB
Duration : 2h 9mn
Overall bit rate : 7 980 Kbps
Movie name : Меланхолия [2011, BDRip/720p] || ZUNE@HQFans
Encoded date : UTC 2011-12-01 09:10:22
Writing application : mkvmerge v5.1.0 ('And so it goes') built on Nov 28 2011 23:58:28
Writing library : libebml v1.2.3 + libmatroska v1.3.0
Attachment : Yes
Video
ID : 1
Format : AVC
Format/Info : Advanced Video Codec
Format profile : High@L4.1
Format settings, CABAC : Yes
Format settings, ReFrames : 12 frames
Codec ID : V_MPEG4/ISO/AVC
Duration : 2h 9mn
Bit rate : 4 959 Kbps
Width : 1 280 pixels
Height : 544 pixels
Display aspect ratio : 2.35:1
Frame rate : 25.000 fps
Color space : YUV
Chroma subsampling : 4:2:0
Bit depth : 8 bits
Scan type : Progressive
Bits/(Pixel*Frame) : 0.285
Stream size : 4.36 GiB (60%)
Title : Меланхолия [2011, BDRip/720p] || ZUNE@HQFans
Writing library : x264 core 119 r2106 07efeb4
Encoding settings : cabac=1 / ref=12 / deblock=1:-3:-3 / analyse=0x3:0x113 / me=umh / subme=11 / psy=1 / psy_rd=1.00:0.10 / mixed_ref=1 / me_range=32 / chroma_me=1 / trellis=2 / 8x8dct=1 / cqm=0 / deadzone=21,11 / fast_pskip=0 / chroma_qp_offset=-3 / threads=12 / sliced_threads=0 / nr=0 / decimate=0 / interlaced=0 / bluray_compat=0 / constrained_intra=0 / bframes=10 / b_pyramid=2 / b_adapt=2 / b_bias=0 / direct=3 / weightb=1 / open_gop=0 / weightp=2 / keyint=250 / keyint_min=25 / scenecut=40 / intra_refresh=0 / rc_lookahead=40 / rc=2pass / mbtree=0 / bitrate=4959 / ratetol=1.0 / qcomp=0.55 / qpmin=0 / qpmax=69 / qpstep=4 / cplxblur=20.0 / qblur=0.5 / vbv_maxrate=40000 / vbv_bufsize=30000 / nal_hrd=none / ip_ratio=1.40 / pb_ratio=1.30 / aq=2:0.80 / zones=185721,194825,q=30
Language : English
Color primaries : BT.709-5, BT.1361, IEC 61966-2-4, SMPTE RP177
Transfer characteristics : BT.709-5, BT.1361
Matrix coefficients : BT.709-5, BT.1361, IEC 61966-2-4 709, SMPTE RP177
Audio #1
ID : 2
Format : DTS
Format/Info : Digital Theater Systems
Codec ID : A_DTS
Duration : 2h 9mn
Bit rate mode : Constant
Bit rate : 1 510 Kbps
Channel(s) : 6 channels
Channel positions : Front: L C R, Side: L R, LFE
Sampling rate : 48.0 KHz
Bit depth : 24 bits
Compression mode : Lossy
Stream size : 1.37 GiB (19%)
Title : MVO {BD RUS} [DTS 5.1@1536kbps/24-bit]
Language : Russian
Audio #2
ID : 3
Format : DTS
Format/Info : Digital Theater Systems
Codec ID : A_DTS
Duration : 2h 9mn
Bit rate mode : Constant
Bit rate : 1 510 Kbps
Channel(s) : 6 channels
Channel positions : Front: L C R, Side: L R, LFE
Sampling rate : 48.0 KHz
Bit depth : 24 bits
Compression mode : Lossy
Stream size : 1.37 GiB (19%)
Title : Original [DTS 5.1@1536kbps/24-bit]
Language : English
Text #1
ID : 4
Format : UTF-8
Codec ID : S_TEXT/UTF8
Codec ID/Info : UTF-8 Plain Text
Title : Full
Language : Russian
Text #2
ID : 5
Format : UTF-8
Codec ID : S_TEXT/UTF8
Codec ID/Info : UTF-8 Plain Text
Title : Full
Language : English
Menu
00:00:00.000 : en:Chapter 1
00:08:13.680 : en:Chapter 2
00:24:09.800 : en:Chapter 3
00:33:30.320 : en:Chapter 4
00:45:03.440 : en:Chapter 5
00:53:08.960 : en:Chapter 6
01:03:26.240 : en:Chapter 7
01:20:03.280 : en:Chapter 8
01:33:44.560 : en:Chapter 9
01:47:56.200 : en:Chapter 10
01:57:28.840 : en:Chapter 11
02:03:48.280 : en:Chapter 12

x264.log

---[NoImage] Import("c:\Program Files (x86)\AviSynth 2.5\plugins\BalanceBorders.avs")---[NoImage] LoadPlugin("E:\Rip\DGIndex\DGDecodeNV.dll")---[NoImage] DGMultiSource("E:\Melancholia\Melancholia.dgi")---[NoImage] Crop(0, 132, -0, -132)---[NoImage] Spline36Resize(1280, 544) # AR Error 0%
---[NoImage] raw [info]: 1280x544p 1:1 @ 25/1 fps (cfr)---[NoImage] x264 [info]: using SAR=1/1---[NoImage] x264 [info]: using cpu capabilities: MMX2 SSE2Fast SSSE3 FastShuffle SSE4.2 AVX---[NoImage] x264 [info]: profile High, level 4.1---[NoImage]---[NoImage] x264 [info]: frame I:1078 Avg QP:13.25 size: 95883---[NoImage] x264 [info]: frame P:43486 Avg QP:15.55 size: 37923---[NoImage] x264 [info]: frame B:150262 Avg QP:16.15 size: 20484---[NoImage] x264 [info]: consecutive B-frames: 2.9% 3.0% 10.4% 13.8% 14.9% 41.0% 6.9% 1.4% 3.2% 1.0% 1.6%---[NoImage] x264 [info]: mb I I16..4: 18.2% 59.2% 22.7%---[NoImage] x264 [info]: mb P I16..4: 2.7% 19.8% 2.0% P16..4: 25.7% 30.7% 10.0% 0.0% 0.0% skip: 9.1%---[NoImage] x264 [info]: mb B I16..4: 0.5% 2.9% 0.2% B16..8: 33.2% 24.5% 4.8% direct:11.2% skip:22.9% L0:42.2% L1:42.8% BI:14.9%---[NoImage] x264 [info]: 8x8 transform intra:79.7% inter:50.5%---[NoImage] x264 [info]: direct mvs spatial:98.0% temporal:2.0%---[NoImage] x264 [info]: coded y,uvDC,uvAC intra: 83.9% 76.0% 63.2% inter: 38.3% 37.4% 17.2%---[NoImage] x264 [info]: i16 v,h,dc,p: 27% 9% 9% 54%---[NoImage] x264 [info]: i8 v,h,dc,ddl,ddr,vr,hd,vl,hu: 10% 10% 12% 9% 12% 12% 11% 12% 13%---[NoImage] x264 [info]: i4 v,h,dc,ddl,ddr,vr,hd,vl,hu: 10% 8% 9% 8% 16% 14% 13% 10% 11%---[NoImage] x264 [info]: i8c dc,h,v,p: 45% 25% 17% 13%---[NoImage] x264 [info]: Weighted P-Frames: Y:2.1% UV:0.7%---[NoImage] x264 [info]: ref P L0: 50.0% 4.5% 15.8% 7.9% 5.8% 4.4% 3.6% 2.2% 1.8% 1.5% 1.3% 1.1% 0.2% 0.0%---[NoImage] x264 [info]: ref B L0: 72.5% 12.8% 5.5% 2.8% 2.0% 1.5% 1.2% 0.7% 0.6% 0.3% 0.1%---[NoImage] x264 [info]: ref B L1: 92.9% 7.1%---[NoImage] x264 [info]: kb/s:4958.78---[NoImage] encoded 194826 frames, 7.17 fps, 4958.78 kb/s
-* - Дорожка №1 получена наложением выделенного голоса на центр декодированного DTS-HD MA. Cпасибо doclogan с хдклуба.



Показать сообщения:    

Текущее время: 21-Янв 11:35

Часовой пояс: UTC + 3


Вы не можете начинать темы
Вы не можете отвечать на сообщения
Вы не можете редактировать свои сообщения
Вы не можете удалять свои сообщения
Вы не можете голосовать в опросах
Вы не можете прикреплять файлы к сообщениям
Вы не можете скачивать файлы