Meланхoлия / Melаnchоliа (Ларс фон Триер / Lars von Trier) [2011, Германия, Дания, Швеция, Франция, фантастика, драма, BDRip 1080p] MVO + Original Eng + Sub Rus, Eng


 

[Цитировать]

МеланхолияMelancholia«Enjoy it while it lasts»- Страна: Германия, Дания, Швеция, Франция
Жанр: фантастика, драма
Год выпуска: 2011
Продолжительность: 02:09:59-Перевод: Профессиональный (многоголосый, закадровый)
Оригинальная аудио дорожка: английский
Субтитры: русские (Full), английские (Full)-Режиссер: Ларс фон Триер / Lars von Trier
В ролях: Кирстен Данст (Justine), Шарлотта Генсбур (Claire), Александр Скарсгард (Michael), Кифер Сазерленд (John), Брэйди Корбет (Tim), Шарлотта Рэмплинг (Gaby), Еспер Кристенсен (Little Father), Джон Хёрт (Dexter), Стеллан Скарсгард (Jack), Удо Кир (Wedding planner), Cameron Spurr (Leo), Джеймс Кэгнард (Michael's Father)
Описание: Свадебная вечеринка оборачивается катастрофой вселенского масштаба: обнаруживается, что на Землю надвигается планета под названием Меланхолия. С каждым часом она все ближе, и шансов на выживание у человечества все меньше…


MPAA: R - Лицам до 17 лет обязательно присутствие взрослого-Раздача от: HQFans
Качество: BDRip/1080p (by CHD)
Формат: MKV
Видео: 1920x816, AVC, 25 fps, 11 727 kbps
Аудио №1: Russian / DTS / 5.1 / 48 kHz / 1 536 kbps / 24-bit || Профессиональный (многоголосый, закадровый) {R5}*
Аудио №2: English / DTS / 5.1 / 48 kHz / 1 536 kbps / 24-bit
Навигация по главам: 12 шт.

Media Info

General
Unique ID : 231679378936335176839465201390647711213 (0xAE4BD3496B8EBFB58D424D844C4F15ED)
Complete name : Меланхолия__Melancholia [2011.BDRip.1080p.MVO.Eng.Subs]-CHD.mkv
Format : Matroska
Format version : Version 2
File size : 13.4 GiB
Duration : 2h 9mn
Overall bit rate : 14.7 Mbps
Movie name : Меланхолия [2011, BDRip/1080p]-CHD || HQFans
Encoded date : UTC 2011-12-03 15:41:20
Writing application : mkvmerge v5.1.0 ('And so it goes') built on Nov 28 2011 23:58:28
Writing library : libebml v1.2.3 + libmatroska v1.3.0
Attachment : Yes
Video
ID : 1
Format : AVC
Format/Info : Advanced Video Codec
Format profile : High@L4.1
Format settings, CABAC : Yes
Format settings, ReFrames : 5 frames
Codec ID : V_MPEG4/ISO/AVC
Duration : 2h 9mn
Bit rate : 11.7 Mbps
Width : 1 920 pixels
Height : 816 pixels
Display aspect ratio : 2.35:1
Frame rate : 25.000 fps
Color space : YUV
Chroma subsampling : 4:2:0
Bit depth : 8 bits
Scan type : Progressive
Bits/(Pixel*Frame) : 0.299
Stream size : 10.4 GiB (78%)
Title : Меланхолия [2011, BDRip/1080p]-CHD || HQFans
Writing library : x264 core 116 r2074 2641b9e
Encoding settings : cabac=1 / ref=5 / deblock=1:-3:-3 / analyse=0x3:0x113 / me=umh / subme=11 / psy=1 / psy_rd=1.00:0.05 / mixed_ref=1 / me_range=48 / chroma_me=1 / trellis=2 / 8x8dct=1 / cqm=0 / deadzone=21,11 / fast_pskip=0 / chroma_qp_offset=-2 / threads=12 / sliced_threads=0 / nr=0 / decimate=1 / interlaced=0 / bluray_compat=0 / constrained_intra=0 / bframes=6 / b_pyramid=2 / b_adapt=2 / b_bias=0 / direct=3 / weightb=1 / open_gop=0 / weightp=2 / keyint=250 / keyint_min=25 / scenecut=40 / intra_refresh=0 / rc_lookahead=60 / rc=2pass / mbtree=1 / bitrate=11714 / ratetol=1.0 / qcomp=0.70 / qpmin=0 / qpmax=69 / qpstep=4 / cplxblur=20.0 / qblur=0.5 / vbv_maxrate=40000 / vbv_bufsize=30000 / nal_hrd=none / ip_ratio=1.40 / aq=2:0.90
Language : English
Audio #1
ID : 2
Format : DTS
Format/Info : Digital Theater Systems
Codec ID : A_DTS
Duration : 2h 9mn
Bit rate mode : Constant
Bit rate : 1 510 Kbps
Channel(s) : 6 channels
Channel positions : Front: L C R, Side: L R, LFE
Sampling rate : 48.0 KHz
Bit depth : 24 bits
Compression mode : Lossy
Stream size : 1.37 GiB (10%)
Title : MVO {BD RUS} [DTS 5.1@1536kbps/24-bit]
Language : Russian
Audio #2
ID : 3
Format : DTS
Format/Info : Digital Theater Systems
Codec ID : A_DTS
Duration : 2h 9mn
Bit rate mode : Constant
Bit rate : 1 510 Kbps
Channel(s) : 6 channels
Channel positions : Front: L C R, Side: L R, LFE
Sampling rate : 48.0 KHz
Bit depth : 24 bits
Compression mode : Lossy
Stream size : 1.37 GiB (10%)
Title : Original [DTS 5.1@1536kbps/24-bit]
Language : English
Text #1
ID : 4
Format : UTF-8
Codec ID : S_TEXT/UTF8
Codec ID/Info : UTF-8 Plain Text
Title : Full
Language : Russian
Text #2
ID : 5
Format : UTF-8
Codec ID : S_TEXT/UTF8
Codec ID/Info : UTF-8 Plain Text
Title : Full
Language : English
Menu
00:00:00.000 : en:Chapter 1
00:08:13.680 : en:Chapter 2
00:24:09.800 : en:Chapter 3
00:33:30.320 : en:Chapter 4
00:45:03.440 : en:Chapter 5
00:53:08.960 : en:Chapter 6
01:03:26.240 : en:Chapter 7
01:20:03.280 : en:Chapter 8
01:33:44.560 : en:Chapter 9
01:47:56.200 : en:Chapter 10
01:57:28.840 : en:Chapter 11
02:03:48.280 : en:Chapter 12
* - Дорожка №1 получена наложением выделенного голоса на центр декодированного DTS-HD MA. Cпасибо doclogan с хдклуба.--Торрент-файл перезалит (03.12.2011).
Исправлен баг с воспроизведением на последних минутах. Замена на рип от CHD.



Показать сообщения:    

Текущее время: 04-Дек 21:16

Часовой пояс: UTC + 3


Вы не можете начинать темы
Вы не можете отвечать на сообщения
Вы не можете редактировать свои сообщения
Вы не можете удалять свои сообщения
Вы не можете голосовать в опросах
Вы не можете прикреплять файлы к сообщениям
Вы не можете скачивать файлы