Колено Клер / Le genou de Claire / Claire's Knee (Эрик Ромер / Eric Rohmer) [1970 г., Франция, драма, BDRemux 1080p] MVO (Видеоимпульс) + AVO (Козлов) + Original Fre + Sub (Rus, Eng)


 

[Цитировать]

Колено Клер / Le genou de Claire / Claire's Knee- Год выпуска: 1970
Страна: Франция
Жанр: драма
Продолжительность: 01:45:50
Перевод:
  • Профессиональный (многоголосый закадровый) Видеоимпульс
  • Авторский (одноголосый закадровый) Сергей Козлов
Оригинальная аудиодорожка: Французская
Cубтитры: Русские, английские-Режиссер: Эрик Ромер / Eric Rohmer
В ролях: Жан-Клод Бриали, Аврора Корну, Беатрис Роман, Лоуренс Де Монахэн, Мишель Монтель, Жерар Фальконетти, Фабрис Лукини-Описание:
Жизнь Жерома, интеллектуала средних лет, полностью подчинена разуму, а не сердцу. Французский дипломат, он помолвлен с женщиной, которую любит, но к которой не испытывает страсти. Во время отдыха на Французских Альпах, где прошло его детство, ему встречается подруга юности — писательница Аврора, которая знакомит его с 14-летней Лорой, проводящей здесь каникулы. Жерома забавляет чувство, которое начинает проявлять к нему Лора, пока он сам не начинает испытывать странное чувство к ее сестре — Клер. Но свою страсть он облекает в такую форму, в которой может удержать ее под контролем: искушение для него — дотронуться до ее колена.- | | Сэмпл-Качество: BDRemux 1080p
Контейнер: MKV
Видео: 1920x1080 (1.37:1), 24 fps, 28451 kbps
Аудио 1: Русский AC3 1.0, 48 kHz, 192 kbps — Видеоимпульс
Аудио 2: Русский AC3 1.0, 48 kHz, 192 kbps — VO
Аудио 3: Французский DTS-HD MA 1.0, 48 kHz, 813 kbps, 16-bit (DTS Core: 1.0, 48 kHz, 768 kbps, 16-bit)
Формат субтитров: softsub (SRT)

Скриншоты


MI

General
Unique ID : 223875121641981751212572727570058164889 (0xA86CC7B1D6DE0C3F823D61E09993BA99)
Complete name : Le.genou.de.Claire.1970.1080p.Remux.mkv
Format : Matroska
Format version : Version 2
File size : 21.9 GiB
Duration : 1h 45mn
Overall bit rate mode : Variable
Overall bit rate : 29.7 Mbps
Movie name : Le genou de Claire / Колено Клер (1970) – RuTracker
Encoded date : UTC 2014-02-20 14:40:55
Writing application : mkvmerge v6.1.0 ('Old Devil') built on Mar 2 2013 14:32:37
Writing library : libebml v1.3.0 + libmatroska v1.4.0
Attachment : Yes
Video
ID : 1
Format : AVC
Format/Info : Advanced Video Codec
Format profile : High@L4.1
Format settings, CABAC : Yes
Format settings, ReFrames : 4 frames
Format settings, GOP : M=3, N=24
Codec ID : V_MPEG4/ISO/AVC
Duration : 1h 45mn
Bit rate mode : Variable
Maximum bit rate : 35.0 Mbps
Width : 1 920 pixels
Height : 1 080 pixels
Display aspect ratio : 16:9
Frame rate mode : Constant
Frame rate : 24.000 fps
Standard : NTSC
Color space : YUV
Chroma subsampling : 4:2:0
Bit depth : 8 bits
Scan type : Progressive
Title : Le genou de Claire 1970 1080p Blu-ray AVC DTS-HD MA 1.0-ousia
Language : French
Default : Yes
Forced : No
Color primaries : BT.709
Transfer characteristics : BT.709
Matrix coefficients : BT.709
Audio #1
ID : 2
Format : AC-3
Format/Info : Audio Coding 3
Mode extension : CM (complete main)
Format settings, Endianness : Big
Codec ID : A_AC3
Duration : 1h 45mn
Bit rate mode : Constant
Bit rate : 192 Kbps
Channel(s) : 1 channel
Channel positions : Front: C
Sampling rate : 48.0 KHz
Bit depth : 16 bits
Compression mode : Lossy
Stream size : 145 MiB (1%)
Title : MVO – Видеоимпульс
Language : Russian
Default : Yes
Forced : No
Audio #2
ID : 3
Format : AC-3
Format/Info : Audio Coding 3
Mode extension : CM (complete main)
Format settings, Endianness : Big
Codec ID : A_AC3
Duration : 1h 45mn
Bit rate mode : Constant
Bit rate : 192 Kbps
Channel(s) : 1 channel
Channel positions : Front: C
Sampling rate : 48.0 KHz
Bit depth : 16 bits
Compression mode : Lossy
Stream size : 145 MiB (1%)
Title : VO
Language : Russian
Default : No
Forced : No
Audio #3
ID : 4
Format : DTS
Format/Info : Digital Theater Systems
Format profile : MA / Core
Mode : 16
Format settings, Endianness : Big
Codec ID : A_DTS
Duration : 1h 45mn
Bit rate mode : Variable
Bit rate : Unknown / 768 Kbps
Channel(s) : 1 channel
Channel positions : Front: C
Sampling rate : 48.0 KHz
Bit depth : 16 bits
Compression mode : Lossless / Lossy
Title : Original
Language : French
Default : No
Forced : No
Text #1
ID : 5
Format : UTF-8
Codec ID : S_TEXT/UTF8
Codec ID/Info : UTF-8 Plain Text
Language : Russian
Default : No
Forced : No
Text #2
ID : 6
Format : UTF-8
Codec ID : S_TEXT/UTF8
Codec ID/Info : UTF-8 Plain Text
Language : English
Default : No
Forced : No
Menu
00:00:00.000 : fr:01. Générique
00:01:14.458 : fr:02. Lundi 29 juin
00:06:56.583 : fr:03. Les yeux bandés
00:15:42.083 : fr:04. Notre histoire
00:24:58.667 : fr:05. Au bord du lac
00:33:44.875 : fr:06. La promenade
00:42:35.667 : fr:07. Je n'aime pas les gens de mon âge
00:56:18.083 : fr:08. Elles sont un peu bizarres, les femmes
01:01:19.208 : fr:09. En transit
01:11:52.375 : fr:10. La partie de volley
01:20:28.000 : fr:11. Pas libre
01:27:38.667 : fr:12. Explications
01:36:01.000 : fr:13. Toucher son genou



Показать сообщения:    

Текущее время: 07-Дек 15:30

Часовой пояс: UTC + 3


Вы не можете начинать темы
Вы не можете отвечать на сообщения
Вы не можете редактировать свои сообщения
Вы не можете удалять свои сообщения
Вы не можете голосовать в опросах
Вы не можете прикреплять файлы к сообщениям
Вы не можете скачивать файлы