Мелинда и Мелинда / Melinda and Melinda (Вуди Аллен / Woody Allen) [2004, США, комедия, драма, HDTV 1080i] MVO (1 канал)


 

[Цитировать]

Мелинда и Мелинда / Melinda and Melinda
Страна: США
Жанр: комедия, драма
Год выпуска: 2004
Продолжительность: 01:33:22
Перевод: Профессиональный (многоголосый закадровый)
Cубтитры: нет
Оригинальная аудиодорожка: нет
Режиссер: Вуди Аллен / Woody Allen
В ролях: Чиветел Эджиофор, Уилл Феррелл, Джонни Ли Миллер, Рада Митчел, Аманда Пит, Клоэ Севиньи, Уоллес Шоун, Дэвид Аарон Бэйкер, Ария Барейкис, Джош Бролин
Описание: За столиком ресторана друзья обсуждают, чего больше в жизни — комического или трагического. Автор успешных комедий убежден, что люди ищут повод для смеха, чтобы убежать от боли — его друг верит в силу трагедии. В качестве примера каждый развивает историю, основанную на анекдоте о незваном госте — молодой женщине Мелинде, чья жизнь пошла под откос.
В драматической версии мы видим переживания Мелинды после тяжелого развода; комедийная версия событий развивается в спальном районе, где Мелинда вносит сумятицу во время соседской вечеринки своей попыткой самоубийства. Здесь фигурирует масса комических персонажей из художественной богемы, включая безработного актера, заигрывающего с Мелиндой, и его жену-режиссера, более всего озабоченную охмурением банкира для спонсирования нового проекта «Сонаты о кастрации».
Сэмпл: http://multi-up.com/951330
Тип релиза: HDTV 1080i
Контейнер: TS
Видео: AVC, 1920x1080 (16/9), 25.000 fps, 11.9 Mbps (0.229 bit/pixel)
Аудио: MP2, 48.0 KHz, 2 ch, 192 Kbps, CBR (Russian)

MediaInfo

Общее
Идентификатор : 3 (0x3)
Полное имя : K:\МОИ РАЗДАЧИ\Мелинда и Мелинда.TS
Формат : MPEG-TS
Размер файла : 8,47 Гбайт
Продолжительность : 1 ч. 33 м.
Режим общего битрейта : Переменный
Общий поток : 13,0 Мбит/сек
Видео
Идентификатор : 2141 (0x85D)
Идентификатор меню : 21004 (0x520C)
Формат : AVC
Формат/Информация : Advanced Video Codec
Профиль формата : Main@L4.0
Параметр CABAC формата : Да
Параметр ReFrames формата : 3 кадра
Идентификатор кодека : 27
Продолжительность : 1 ч. 33 м.
Битрейт : 12,2 Мбит/сек
Ширина : 1920 пикселей
Высота : 1080 пикселей
Соотношение сторон : 16:9
Частота кадров : 25,000 кадров/сек
Стандарт вещания : Component
Цветовое пространство : YUV
Субдискретизация насыщенности : 4:2:0
Битовая глубина : 8 бит
Тип развёртки : Чересстрочная
Порядок развёртки : Верхнее поле первое
Бит/(Пиксели*Кадры) : 0.234
Размер потока : 7,92 Гбайт (94%)
Основные цвета : BT.709
Характеристики трансфера : BT.709
Коэффициенты матрицы : BT.709
Аудио
Идентификатор : 2142 (0x85E)
Идентификатор меню : 21004 (0x520C)
Формат : MPEG Audio
Версия формата : Version 1
Профиль формата : Layer 2
Идентификатор кодека : 4
Продолжительность : 1 ч. 33 м.
Вид битрейта : Постоянный
Битрейт : 192 Кбит/сек
Каналы : 2 канала
Частота : 48,0 КГц
Метод сжатия : С потерями
Задержка видео : 127 мс.
Размер потока : 128 Мбайт (1%)
Язык : Russian

Скриншоты





Показать сообщения:    

Текущее время: 04-Дек 21:24

Часовой пояс: UTC + 3


Вы не можете начинать темы
Вы не можете отвечать на сообщения
Вы не можете редактировать свои сообщения
Вы не можете удалять свои сообщения
Вы не можете голосовать в опросах
Вы не можете прикреплять файлы к сообщениям
Вы не можете скачивать файлы