Маленький Будда / Little Buddha (Бернардо Бертолуччи / Bernardo Bertolucci) [1993, Италия, Франция, Лихтенштейн, Великобритания, драма, BDRip 720p] [Режиссерская версия / Director's cut] MVO + Original Eng


 

[Цитировать]

Маленький Будда (Режиссерская версия) / Little Buddha (Director's cut)
Страна: Италия, Франция, Лихтенштейн, Великобритания
Студия: CiBy 2000, Recorded Picture Company (RPC), Serprocor Anstalt
Жанр: Драма, Буддизм, Реинкарнация
Год выпуска: 1993
Продолжительность: 2:20:37
Перевод: Профессиональный (многоголосый закадровый) (voice over)
Cубтитры: нет
Оригинальная аудиодорожка: английский
Режиссер: Бернардо Бертолуччи / Bernardo Bertolucci
В ролях: Киану Ривз, Крис Айзек, Бриджит Фонда, Ин Жочэн,
Алекс Визендейнджер, Раджу Лал, Грейшма Макар Сингх, Согйял Ринпоче,
Хёнгла Рато Ринпоче, Геше Цултим Гелсен, Джигме Кунсанг
Описание: Группа буддистских монахов под предводительством Ламы Норбу ищет реинкарнацию его учителя Ламы Дордже.
Он находит трёх детей, возможных перевоплощений этого учителя: мальчика Джесса Конрада из Сиэтла, беспризорника из Катманду и девочку из знатной индийской семьи.
Вместе они отправляются в Бутан, где дети должны подвергнуться испытанию, чтобы выяснить, кто из них является истинной реинкарнацией.
Сюжет фильма связан с буддизмом и жизнью Будды Гаутамы.
Сэмпл: Sample 44,9Mb
Тип релиза: BDRip 720p
Контейнер: MKV
Видео: H.264, 1280x640p, 24 fps, 4790 Kbps
Аудио: Russian (Dolby AC3, 2 ch, 48.0 KHz, 384 Kbps);
Аудио 2: English (DTS 5.1, 6 ch, 48.0 KHz, 1 509 Kbps);

MediaInfo

General
Unique ID                                : 202116759246336696446861964636757786662 (0x980E459A8CE99BD69D83664E121D8026)
Complete name                            : D:\Distrib\Video\Little Buddha 1993\little.buddha.1993.BDRip720p.x264-rough.mkv
Format                                   : Matroska
Format version                           : Version 4 / Version 2
File size                                : 6.57 GiB
Duration                                 : 2h 20mn
Overall bit rate                         : 6 686 Kbps
Encoded date                             : UTC 2014-02-10 16:21:14
Writing application                      : mkvmerge v6.3.0 ('You can't stop me!') built on Jun 28 2013 20:09:41
Writing library                          : libebml v1.3.0 + libmatroska v1.4.0
Video
ID                                       : 1
Format                                   : AVC
Format/Info                              : Advanced Video Codec
Format profile                           : High@L3.1
Format settings, CABAC                   : Yes
Format settings, ReFrames                : 5 frames
Codec ID                                 : V_MPEG4/ISO/AVC
Duration                                 : 2h 20mn
Bit rate                                 : 4 790 Kbps
Width                                    : 1 280 pixels
Height                                   : 640 pixels
Display aspect ratio                     : 2.000
Frame rate mode                          : Constant
Frame rate                               : 24.000 fps
Color space                              : YUV
Chroma subsampling                       : 4:2:0
Bit depth                                : 8 bits
Scan type                                : Progressive
Bits/(Pixel*Frame)                       : 0.244
Stream size                              : 4.58 GiB (70%)
Writing library                          : x264 core 138 r2358 9e941d1
Encoding settings                        : cabac=1 / ref=5 / deblock=1:0:0 / analyse=0x3:0x133 / me=umh / subme=7 / psy=1 / psy_rd=1.00:0.00 / mixed_ref=1 / me_range=16 / chroma_me=1 / trellis=1 / 8x8dct=1 / cqm=0 / deadzone=21,11 / fast_pskip=0 / chroma_qp_offset=-2 / threads=18 / lookahead_threads=3 / sliced_threads=0 / nr=0 / decimate=1 / interlaced=0 / bluray_compat=0 / constrained_intra=0 / bframes=3 / b_pyramid=2 / b_adapt=2 / b_bias=0 / direct=3 / weightb=1 / open_gop=0 / weightp=2 / keyint=250 / keyint_min=24 / scenecut=40 / intra_refresh=0 / rc_lookahead=50 / rc=2pass / mbtree=1 / bitrate=4790 / ratetol=1.0 / qcomp=0.60 / qpmin=0 / qpmax=69 / qpstep=4 / cplxblur=20.0 / qblur=0.5 / ip_ratio=1.40 / aq=1:1.00
Language                                 : French
Default                                  : Yes
Forced                                   : No
Audio #1
ID                                       : 2
Format                                   : AC-3
Format/Info                              : Audio Coding 3
Mode extension                           : CM (complete main)
Format settings, Endianness              : Big
Codec ID                                 : A_AC3
Duration                                 : 2h 20mn
Bit rate mode                            : Constant
Bit rate                                 : 384 Kbps
Channel(s)                               : 2 channels
Channel positions                        : Front: L R
Sampling rate                            : 48.0 KHz
Bit depth                                : 16 bits
Compression mode                         : Lossy
Stream size                              : 386 MiB (6%)
Title                                    : Профессиональный многоголосый (voice over)
Language                                 : Russian
Default                                  : Yes
Forced                                   : No
Audio #2
ID                                       : 3
Format                                   : DTS
Format/Info                              : Digital Theater Systems
Mode                                     : 16
Format settings, Endianness              : Big
Codec ID                                 : A_DTS
Duration                                 : 2h 20mn
Bit rate mode                            : Constant
Bit rate                                 : 1 509 Kbps
Channel(s)                               : 6 channels
Channel positions                        : Front: L C R, Side: L R, LFE
Sampling rate                            : 48.0 KHz
Bit depth                                : 24 bits
Compression mode                         : Lossy
Stream size                              : 1.48 GiB (23%)
Title                                    : DTS 5.1
Language                                 : English
Default                                  : No
Forced                                   : No
Menu
00:00:00.000                             : en:00:00:00.000
00:10:02.500                             : en:00:10:02.500
00:23:12.083                             : en:00:23:12.083
00:36:55.000                             : en:00:36:55.000
00:50:47.708                             : en:00:50:47.708
01:00:29.667                             : en:01:00:29.667
01:12:28.458                             : en:01:12:28.458
01:27:25.583                             : en:01:27:25.583
01:37:13.417                             : en:01:37:13.417
01:46:00.667                             : en:01:46:00.667
01:57:32.958                             : en:01:57:32.958
02:10:04.458                             : en:02:10:04.458

Скриншоты





Показать сообщения:    

Текущее время: 10-Дек 09:56

Часовой пояс: UTC + 3


Вы не можете начинать темы
Вы не можете отвечать на сообщения
Вы не можете редактировать свои сообщения
Вы не можете удалять свои сообщения
Вы не можете голосовать в опросах
Вы не можете прикреплять файлы к сообщениям
Вы не можете скачивать файлы