В другой стране / Da-reun na-ra-e-seo / In Another Country (Хон Сан Су / Hong Sang Soo) [2012, Южная Корея, драма, BDRip 720p] DVO (R5) + Original (Kor) + Sub (Rus, Eng)


 

[Цитировать]

В другой стране / Da-reun na-ra-e-seo / In Another Country / Da-reun na-ra-e-suh Страна: Южная Корея
Студия: Jeonwonsa Film
Жанр: драма
Год выпуска: 2012
Продолжительность: 01:28:37
Перевод: Профессиональный (двухголосый закадровый) R5
Cубтитры: английские, русские, корейский (хардсаб)
Оригинальная аудиодорожка: корейский (мультиязыковая: корейский, английский)
Режиссер: Хон Сан Су / Hong Sang Soo
В ролях: Изабель Юппер, Ю Чжун Сан, Чжон Ю Ми, Юн Ё Чжон, Мун Санг Койн, Квон Хэ Хё, Мун Со Ри, Ким Ён Ок
Описание:
Анна замужем и изменяет мужу. Другая Анна — разведена. Третья Анна — снимает кино. Все три однажды оказываются в одном городке, в одном отеле и на одном пляже. Встречаются с одними и теми же людьми, говорят одни и те же слова, попадают в похожие ситуации… Но окружающие не замечают этой странности. Ведь живут все три Анны в одной голове…
- -Тип релиза: BDRip 720p (рип от EA)

Контейнер: MKV
Видео: AVC (x264), 1280x692 (1,85:1) at 23,976 fps, 9094 Кbps, 0.428 bpp
Аудио 1: AC3; 384 Kbps; CBR; 6 ch; 48 khz | DVO - R5 |
Аудио 2: AC3; 640 Kbps; CBR; 6 ch; 48 khz | Корейский |
Формат субтитров: softsub (SRT); hardsub
Скриншоты || x264 Info || MediaInfo || NotesNotes: Бонусом убитый звук от "Кармен Видео"

MediaInfo

Общее
Уникальный идентификатор                 : 170919453095608105658598278590664660127 (0x8095E3A7D275985798601F239FF1D49F)
Полное имя                               : В другой стране.2012.P.720p.BluRay.x264-EA.mkv
Формат                                   : Matroska
Версия формата                           : Version 4 / Version 2
Размер файла                             : 6,39 Гбайт
Продолжительность                        : 1 ч. 28 м.
Общий поток                              : 10,3 Мбит/сек
Название фильма                          : In Another Country [720p] [2012] DVO
Дата кодирования                         : UTC 2013-12-01 20:45:19
Программа кодирования                    : mkvmerge v6.5.0 ('Isn't she lovely') built on Oct 20 2013 12:50:05
Библиотека кодирования                   : libebml v1.3.0 + libmatroska v1.4.1
Видео
Идентификатор                            : 1
Формат                                   : AVC
Формат/Информация                        : Advanced Video Codec
Профиль формата                          : High@L4.1
Параметр CABAC формата                   : Да
Параметр ReFrames формата                : 9 кадров
Идентификатор кодека                     : V_MPEG4/ISO/AVC
Продолжительность                        : 1 ч. 28 м.
Битрейт                                  : 9094 Кбит/сек
Ширина                                   : 1280 пикселей
Высота                                   : 692 пикселя
Соотношение сторон                       : 1,85:1
Режим частоты кадров                     : Постоянный
Частота кадров                           : 23,976 кадра/сек
Цветовое пространство                    : YUV
Субдискретизация насыщенности            : 4:2:0
Битовая глубина                          : 8 бит
Тип развёртки                            : Прогрессивная
Бит/(Пиксели*Кадры)                      : 0.428
Размер потока                            : 5,63 Гбайт (88%)
Заголовок                                : profile.php?mode=viewprofile&u=22488948
Библиотека кодирования                   : x264 core 140 r2377 1ca7bb9
Настройки программы                      : cabac=1 / ref=9 / deblock=1:-3:-3 / analyse=0x3:0x113 / me=umh / subme=11 / psy=1 / psy_rd=1.10:0.05 / mixed_ref=1 / me_range=32 / chroma_me=1 / trellis=2 / 8x8dct=1 / cqm=0 / deadzone=21,11 / fast_pskip=0 / chroma_qp_offset=-3 / threads=12 / lookahead_threads=3 / sliced_threads=0 / nr=0 / decimate=0 / interlaced=0 / bluray_compat=0 / constrained_intra=0 / bframes=10 / b_pyramid=2 / b_adapt=2 / b_bias=0 / direct=3 / weightb=1 / open_gop=0 / weightp=2 / keyint=230 / keyint_min=23 / scenecut=40 / intra_refresh=0 / rc_lookahead=50 / rc=crf / mbtree=0 / crf=15.8 / qcomp=0.75 / qpmin=0 / qpmax=69 / qpstep=4 / vbv_maxrate=62500 / vbv_bufsize=78125 / crf_max=0.0 / nal_hrd=none / filler=0 / ip_ratio=1.40 / pb_ratio=1.30 / aq=1:0.80
Язык                                     : Korean
Default                                  : Да
Forced                                   : Нет
Основные цвета                           : BT.709
Характеристики трансфера                 : BT.709
Коэффициенты матрицы                     : BT.709
Аудио #1
Идентификатор                            : 2
Формат                                   : AC-3
Формат/Информация                        : Audio Coding 3
Расширение режима                        : CM (complete main)
Параметр Endianness формата              : Big
Идентификатор кодека                     : A_AC3
Продолжительность                        : 1 ч. 28 м.
Вид битрейта                             : Постоянный
Битрейт                                  : 384 Кбит/сек
Каналы                                   : 6 каналов
Расположение каналов                     : Front: L C R, Side: L R, LFE
Частота                                  : 48,0 КГц
Битовая глубина                          : 16 бит
Метод сжатия                             : С потерями
Размер потока                            : 243 Мбайт (4%)
Заголовок                                : P, DVO [R5]
Язык                                     : Russian
Default                                  : Да
Forced                                   : Нет
Аудио #2
Идентификатор                            : 3
Формат                                   : AC-3
Формат/Информация                        : Audio Coding 3
Расширение режима                        : CM (complete main)
Параметр Endianness формата              : Big
Идентификатор кодека                     : A_AC3
Продолжительность                        : 1 ч. 28 м.
Вид битрейта                             : Постоянный
Битрейт                                  : 640 Кбит/сек
Каналы                                   : 6 каналов
Расположение каналов                     : Front: L C R, Side: L R, LFE
Частота                                  : 48,0 КГц
Битовая глубина                          : 16 бит
Метод сжатия                             : С потерями
Размер потока                            : 406 Мбайт (6%)
Язык                                     : Korean
Default                                  : Нет
Forced                                   : Нет
Текст #1
Идентификатор                            : 4
Формат                                   : UTF-8
Идентификатор кодека                     : S_TEXT/UTF8
Идентификатор кодека/Информация          : UTF-8 Plain Text
Язык                                     : English
Default                                  : Нет
Forced                                   : Нет
Текст #2
Идентификатор                            : 5
Формат                                   : UTF-8
Идентификатор кодека                     : S_TEXT/UTF8
Идентификатор кодека/Информация          : UTF-8 Plain Text
Заголовок                                : R5
Язык                                     : Russian
Default                                  : Нет
Forced                                   : Нет
Меню
00:00:00.000                             : en:00:00:00.000
00:02:17.429                             : en:00:02:17.429
00:09:09.549                             : en:00:09:09.549
00:16:20.688                             : en:00:16:20.688
00:22:45.573                             : en:00:22:45.573
00:28:07.895                             : en:00:28:07.895
00:31:50.951                             : en:00:31:50.951
00:36:19.260                             : en:00:36:19.260
00:49:10.573                             : en:00:49:10.573
00:57:05.589                             : en:00:57:05.589
01:01:51.833                             : en:01:01:51.833
01:10:27.473                             : en:01:10:27.473
01:16:04.143                             : en:01:16:04.143
01:26:43.365                             : en:01:26:43.365
x264 Infox264 [info]: frame I: 596 Avg QP:15.22 size:238524
x264 [info]: frame P: 26140 Avg QP:16.88 size:105197
x264 [info]: frame B:100741 Avg QP:18.81 size: 32642
x264 [info]: consecutive B-frames: 1.2% 1.7% 5.1% 18.8% 18.3% 47.9% 4.9% 0.7% 0.6% 0.3% 0.5%



Показать сообщения:    

Текущее время: 09-Дек 12:42

Часовой пояс: UTC + 3


Вы не можете начинать темы
Вы не можете отвечать на сообщения
Вы не можете редактировать свои сообщения
Вы не можете удалять свои сообщения
Вы не можете голосовать в опросах
Вы не можете прикреплять файлы к сообщениям
Вы не можете скачивать файлы