Мошенничество / Il bidone (Федерико Феллини / Federico Fellini) [1955, США, драма, BDRemux 1080p] [Eureka Moc #66] MVO + DVO + Sub (Rus, Eng) + Original Ita


 

[Цитировать]

Мошенничество / Il bidone
Страна: Италия, Франция
Жанр: драма
Год выпуска: 1955
Продолжительность: 01:52:48
Перевод: Профессиональный (многоголосый закадровый)
Перевод: Профессиональный (двухголосый закадровый)
Cубтитры: русские, английские
Оригинальная аудиодорожка: итальянский-Режиссер: Федерико Феллини / Federico Fellini
В ролях: Бродерик Кроуфорд, Ричард Бэйзхарт, Франко Фабрици, Джульетта Мазина, Сью Эллен Блейк, Ирена Чефаро, Альберто Де Амичис, Лорелла ДеЛюка, Сара Симони, Джакомо Габриелли, Риккардо Гарроне, Этторе Бевилакуа, Марио Пассанте, Ксения Вальдери, Мария Заноли
Описание: Стареющий мелкий мошенник Августо с двумя напарниками живет тем, что обманывает бедных крестьян. Но напарники однажды оставляют его, чтобы вернуться в свои семьи, и тогда Августо должен собрать новую шайку.
IMDb || КиноПоиск-Тип релиза: BDRemux 1080p [Il bidone 1955 1080p Blu-ray AVC LPCM 1.0-ESiR (thx DBaT)]
Контейнер: MKV
Видео: MPEG-4 AVC Video, 1920x1080 at 23.976 fps, ~34989 kbps
Аудио#1: Russian: 48 kHz, AC3, 2.0 ch, 192 kbps |Многоголосый закадровый|
Аудио#2: Russian: 48 kHz, AC3, 2.0 ch, 160 kbps |Двухголосый закадровый|
Аудио#3: English: 48 kHz, LPCM, 1.0 ch, 1152 kbps
Формат субтитров: softsub (SRT)
Сэмпл

MediaInfo

General
Unique ID : 181673583230551116319854229082009862127 (0x88AD0F3526E6BA9392C122992B1D7FEF)
Complete name : Il bidone.1955.BDRemux. rutracker.mkv
Format : Matroska
Format version : Version 2
File size : 28.8 GiB
Duration : 1h 52mn
Overall bit rate mode : Variable
Overall bit rate : 36.5 Mbps
Movie name : Release for RuTracker
Encoded date : UTC 2014-02-06 16:09:32
Writing application : mkvmerge v5.0.1 ('Es ist Sommer') built on Nov 6 2011 16:23:40
Writing library : libebml v1.2.2 + libmatroska v1.3.0
Video
ID : 1
Format : AVC
Format/Info : Advanced Video Codec
Format profile : High@L4.1
Format settings, CABAC : Yes
Format settings, ReFrames : 3 frames
Codec ID : V_MPEG4/ISO/AVC
Duration : 1h 52mn
Bit rate mode : Variable
Nominal bit rate : 35.0 Mbps
Maximum bit rate : 40.0 Mbps
Width : 1 920 pixels
Height : 1 080 pixels
Display aspect ratio : 16:9
Frame rate : 23.976 fps
Color space : YUV
Chroma subsampling : 4:2:0
Bit depth : 8 bits
Scan type : Progressive
Bits/(Pixel*Frame) : 0.704
Title : Il bidone.1955.BDRemux. rutracker
Writing library : x264 core 128 r2216 198a7ea
Encoding settings : cabac=1 / ref=4 / deblock=0:-1:-1 / analyse=0x3:0x113 / me=umh / subme=8 / psy=1 / psy_rd=1.00:0.15 / mixed_ref=1 / me_range=16 / chroma_me=1 / trellis=1 / 8x8dct=1 / cqm=0 / deadzone=21,11 / fast_pskip=1 / chroma_qp_offset=-3 / threads=12 / lookahead_threads=2 / sliced_threads=0 / slices=4 / nr=0 / decimate=1 / interlaced=0 / bluray_compat=1 / constrained_intra=0 / bframes=3 / b_pyramid=1 / b_adapt=2 / b_bias=0 / direct=3 / weightb=1 / open_gop=1 / weightp=1 / keyint=24 / keyint_min=1 / scenecut=40 / intra_refresh=0 / rc_lookahead=24 / rc=2pass / mbtree=0 / bitrate=35000 / ratetol=0.4 / qcomp=0.40 / qpmin=0 / qpmax=69 / qpstep=4 / cplxblur=20.0 / qblur=0.5 / vbv_maxrate=40000 / vbv_bufsize=30000 / nal_hrd=vbr / ip_ratio=1.40 / pb_ratio=1.30 / aq=1:1.00
Language : Italian
Default : Yes
Forced : No
Color primaries : BT.709-5, BT.1361, IEC 61966-2-4, SMPTE RP177
Transfer characteristics : BT.709-5, BT.1361
Matrix coefficients : BT.709-5, BT.1361, IEC 61966-2-4 709, SMPTE RP177
Audio #1
ID : 2
Format : AC-3
Format/Info : Audio Coding 3
Mode extension : CM (complete main)
Codec ID : A_AC3
Duration : 1h 52mn
Bit rate mode : Constant
Bit rate : 192 Kbps
Channel(s) : 2 channels
Channel positions : Front: L R
Sampling rate : 48.0 KHz
Bit depth : 16 bits
Compression mode : Lossy
Stream size : 155 MiB (1%)
Title : mvo
Language : Russian
Default : Yes
Forced : No
Audio #2
ID : 3
Format : AC-3
Format/Info : Audio Coding 3
Mode extension : CM (complete main)
Codec ID : A_AC3
Duration : 1h 52mn
Bit rate mode : Constant
Bit rate : 160 Kbps
Channel(s) : 2 channels
Channel positions : Front: L R
Sampling rate : 48.0 KHz
Bit depth : 16 bits
Compression mode : Lossy
Stream size : 129 MiB (0%)
Title : dvo
Language : Russian
Default : No
Forced : No
Audio #3
ID : 4
Format : PCM
Codec ID : A_PCM/INT/LIT
Duration : 1h 52mn
Bit rate mode : Constant
Sampling rate : 48.0 KHz
Bit depth : 24 bits
Language : Italian
Default : No
Forced : No
Text #1
ID : 5
Format : UTF-8
Codec ID : S_TEXT/UTF8
Codec ID/Info : UTF-8 Plain Text
Language : Russian
Default : No
Forced : No
Text #2
ID : 6
Format : UTF-8
Codec ID : S_TEXT/UTF8
Codec ID/Info : UTF-8 Plain Text
Language : English
Default : No
Forced : No
Menu
00:00:00.000 : :Buried treasure
00:18:46.250 : :Spoils
00:30:31.830 : :Housing
00:36:24.849 : :New year's eve
01:02:21.571 : :Change of heart
01:19:51.870 : :Father and daughter
01:27:04.177 : :Blessing
01:38:46.545 : :Lonely hillside

Скриншоты




Показать сообщения:    

Текущее время: 11-Дек 16:50

Часовой пояс: UTC + 3


Вы не можете начинать темы
Вы не можете отвечать на сообщения
Вы не можете редактировать свои сообщения
Вы не можете удалять свои сообщения
Вы не можете голосовать в опросах
Вы не можете прикреплять файлы к сообщениям
Вы не можете скачивать файлы