Вики Кристина Барселона / Vicky Cristina Barcelona (Вуди Аллен / Woody Allen) [2008, Испания, США, драма, мелодрама, BDRip 720p] Dub (R5) + AVO (Сербин) + Sub Rus, Eng + Original Eng


 

[Цитировать]

Вики Кристина Барселона / Vicky Cristina Barcelona
«Life is the ultimate work of art»- Страна: Испания, США
Студия: Antena 3 Films
Жанр: драма, мелодрама
Год выпуска: 2008
Продолжительность: 01:36:44-Перевод: Профессиональный (дублированный) R5
Перевод 2: Авторский (одноголосый закадровый) Ю.Сербин
Cубтитры: Rus, Eng, Eng (SDH), Spa.
Оригинальная аудиодорожка: английский-Режиссер: Вуди Аллен / Woody Allen
В ролях: Скарлетт Йоханссон, Хавьер Бардем, Пенелопа Круз, Ребекка Холл, Крис Мессина, Патриция Кларксон, Кристофер Ивэн Уэлш, Кевин Данн, Хулио Периллан, Хуан Куэсада, Ричард Салом, Maurice Sonnenberg, Мануэль Барсело, Хосе Мария Доменек, Эмилио Де Бенито, Jaume Montané, Ллол Бертран, Джоэль Джоан, Сильвия Сабате, Пабло Шрайбер, Кэрри Престон
Описание: Две молодые американки Вики и Кристина проводят свои летние каникулы в Барселоне и совершенно очарованы этим городом, а также одним молодым художником по имени Антонио. Вики — старомодна и настроена на серьезные отношения: ухаживания, свидания и свадебную фату в финале. Кристина — сексуально раскрепощена, раскованна и привлекательна в своей бунтарской сущности.
Антонио не может определиться, его привлекают обе девушки. Отношения в любовном треугольнике становятся все более запутанными, а тут еще в игру вступает бывшая жена Антонио, обладающая весьма взрывным темпераментом, и похоже на то, что она не до конца отказалась от своих прав на бывшего мужа.- 2009 — Премия «Оскар»
Лучшая актриса второго плана — Пенелопа Крус
2009 — Премия «Золотой глобус»
Лучший фильм (комедия или мьюзикл)
-Рип от: CtrlHD
Сэмпл: rusfolder→, sendfile→
Тип релиза: BDRip 720p
Контейнер: MKV
Видео: 1280 x 692 (1.850), x264, CRF16, L4.1, 23.976fps, 7325Kbps
Аудио: 48 kHz, DTS 5.1 - 768 kbps |Дубляж, R5|
Аудио 2: 48 kHz, DTS 3.0 - 1536 kbps |AVO, Ю.Сербин|
Аудио 3: 48 kHz, DD 3.0 - 640 kbps |Оригинал|

MediaInfo

Полное имя : Vicky.Cristina.Barcelona.2008.720p.BluRay.x264-CtrlHD.2xRus.Eng.mkv
Формат : Matroska
Версия формата : Version 4 / Version 2
Размер файла : 6.92 GiB
Продолжительность : 1h 36mn
Общий поток : 10.2 Mbps
Название фильма : Vicky Cristina Barcelona (2008) | Rip by CtrlHD
Дата кодирования : UTC 2014-01-31 15:58:15
Программа кодирования : mkvmerge v6.5.0 ('Isn't she lovely') built on Oct 20 2013 12:50:05
Библиотека кодирования : libebml v1.3.0 + libmatroska v1.4.1
Video
Идентификатор : 1
Формат : AVC
Формат/Информация : Advanced Video Codec
Профиль формата : High@L4.1
Параметр CABAC формата : Yes
Параметр ReFrames формата : 9 frames
Идентификатор кодека : V_MPEG4/ISO/AVC
Продолжительность : 1h 36mn
Битрейт : 7 125 Kbps
Ширина : 1 280 pixels
Высота : 692 pixels
Соотношение сторон : 1.85:1
Режим частоты кадров : Constant
Частота кадров : 23.976 fps
Цветовое пространство : YUV
Субдискретизация насыщенности : 4:2:0
Битовая глубина : 8 bits
Тип развёртки : Progressive
Бит/(Пиксели*Кадры) : 0.335
Размер потока : 4.81 GiB (70%)
Заголовок : Vicky Cristina Barcelona (2008) by Djex
Библиотека кодирования : x264 core 140 r2377kMod 1ca7bb9
Настройки программы : cabac=1 / ref=9 / deblock=1:-3:-3 / analyse=0x3:0x113 / me=umh / subme=10 / psy=1 / fade_compensate=0.00 / psy_rd=1.10:0.00 / mixed_ref=1 / me_range=16 / chroma_me=1 / trellis=2 / 8x8dct=1 / cqm=0 / deadzone=21,11 / fast_pskip=0 / chroma_qp_offset=-2 / threads=6 / lookahead_threads=1 / sliced_threads=0 / nr=0 / decimate=0 / interlaced=0 / bluray_compat=0 / constrained_intra=0 / fgo=0 / bframes=8 / b_pyramid=2 / b_adapt=2 / b_bias=0 / direct=3 / weightb=1 / open_gop=0 / weightp=2 / keyint=250 / keyint_min=23 / scenecut=40 / intra_refresh=0 / rc=crf / mbtree=0 / crf=16.0000 / qcomp=0.70 / qpmin=0 / qpmax=69 / qpstep=4 / ip_ratio=1.20 / pb_ratio=1.20 / aq=1:0.80
Язык : English
Default : No
Forced : No
Audio #1
Идентификатор : 2
Формат : DTS
Формат/Информация : Digital Theater Systems
Режим : 16
Параметр Endianness формата : Big
Идентификатор кодека : A_DTS
Продолжительность : 1h 36mn
Вид битрейта : Constant
Битрейт : 768 Kbps
Каналы : 6 channels
Расположение каналов : Front: L C R, Side: L R, LFE
Частота : 48.0 KHz
Битовая глубина : 24 bits
Метод сжатия : Lossy
Размер потока : 531 MiB (7%)
Заголовок : DTS 5.1 - 768 kbps |Дубляж, R5|
Язык : Russian
Default : Yes
Forced : No
Audio #2
Идентификатор : 3
Формат : DTS
Формат/Информация : Digital Theater Systems
Режим : 16
Параметр Endianness формата : Big
Идентификатор кодека : A_DTS
Продолжительность : 1h 36mn
Вид битрейта : Constant
Битрейт : 1 509 Kbps
Каналы : 3 channels
Расположение каналов : Front: L C R
Частота : 48.0 KHz
Битовая глубина : 16 bits
Метод сжатия : Lossy
Размер потока : 1.02 GiB (15%)
Заголовок : DTS 5.1 - 1536 kbps |AVO, Ю.Сербин|
Язык : Russian
Default : No
Forced : No
Audio #3
Идентификатор : 4
Формат : AC-3
Формат/Информация : Audio Coding 3
Расширение режима : CM (complete main)
Параметр Endianness формата : Big
Идентификатор кодека : A_AC3
Продолжительность : 1h 36mn
Вид битрейта : Constant
Битрейт : 640 Kbps
Каналы : 3 channels
Расположение каналов : Front: L C R
Частота : 48.0 KHz
Битовая глубина : 16 bits
Метод сжатия : Lossy
Размер потока : 443 MiB (6%)
Заголовок : DD 3.0 - 640 kbps |Оригинал|
Язык : English
Default : No
Forced : No
Text #1
Идентификатор : 5
Формат : UTF-8
Идентификатор кодека : S_TEXT/UTF8
Идентификатор кодека/Информация : UTF-8 Plain Text
Язык : Russian
Default : No
Forced : No
Text #2
Идентификатор : 6
Формат : UTF-8
Идентификатор кодека : S_TEXT/UTF8
Идентификатор кодека/Информация : UTF-8 Plain Text
Язык : English
Default : No
Forced : No
Text #3
Идентификатор : 7
Формат : UTF-8
Идентификатор кодека : S_TEXT/UTF8
Идентификатор кодека/Информация : UTF-8 Plain Text
Заголовок : SDH
Язык : English
Default : No
Forced : No
Text #4
Идентификатор : 8
Формат : UTF-8
Идентификатор кодека : S_TEXT/UTF8
Идентификатор кодека/Информация : UTF-8 Plain Text
Язык : Spanish
Default : No
Forced : No
Menu
00:00:00.000 : en:Chapter 1
00:05:09.434 : en:Chapter 2
00:12:36.589 : en:Chapter 3
00:15:00.608 : en:Chapter 4
00:18:31.485 : en:Chapter 5
00:22:49.409 : en:Chapter 6
00:28:46.057 : en:Chapter 7
00:35:29.460 : en:Chapter 8
00:40:17.873 : en:Chapter 9
00:46:00.257 : en:Chapter 10
00:48:06.008 : en:Chapter 11
00:55:42.797 : en:Chapter 12
01:02:37.211 : en:Chapter 13
01:08:12.797 : en:Chapter 14
01:12:42.316 : en:Chapter 15
01:20:48.510 : en:Chapter 16
01:26:53.458 : en:Chapter 17
01:33:22.596 : en:Chapter 18

Скриншоты

Source vs CtrlHD vs ESiR







Показать сообщения:    

Текущее время: 05-Дек 19:31

Часовой пояс: UTC + 3


Вы не можете начинать темы
Вы не можете отвечать на сообщения
Вы не можете редактировать свои сообщения
Вы не можете удалять свои сообщения
Вы не можете голосовать в опросах
Вы не можете прикреплять файлы к сообщениям
Вы не можете скачивать файлы