Конец долгого дня / The Long Day Closes (Теренс Дэвис / Terence Davies) [1992, Великобритания, драма, BDRemux 1080p] [Criterion Collection] MVO + Sub (Rus, Eng) + Original Eng


 

[Цитировать]

Конец долгого дня / The Long Day Closes
Страна: Великобритания
Жанр: драма
Год выпуска: 1992
Продолжительность: 01:25:33
Перевод: Профессиональный (многоголосый закадровый) | ТК "Культура"
Cубтитры: русские (перевод Akuli), английские
Оригинальная аудиодорожка: английский-Режиссер: Теренс Дэвис / Terence Davies
В ролях: Марджори Йэтс, Ли МакКормак, Энтони Уотсон, Николас Ламонт, Айс Оуэнс, Тина Мэлоун, Джимми Вильде, Робин Полли, Питер Иваттс, Джой Блейкмен, Денис Томас, Патриция Моррисон, Кирк МакЛафлин, Маркус Хит, Виктория Дейвис, Бренда Питерс, Питер Холлер, Джейсон Джевонс
Описание: Глубоко автобиографичный и светлый фильм. Воспоминания на закате жизни о страхах и грезах мальчика в далеком детстве, память о дружной семье и близких людях, о славной школьной поре, о мелких проказах и приключениях.
Ливерпуль. 1956 год. Бад - 12-летний тихий и замкнутый ребенок. Его семья - мать, старшая сестра и два старших брата. А моменты подлинного счастья связаны для него с кино. Он завороженно замирает перед экраном кинотеатра. Мелькающие на экране кадры придают ему силу и азарт для вхождения в каждый следующий день жизни.
IMDb || КиноПоиск-Тип релиза: BDRemux 1080p [The Long Day Closes 1992 1080p Blu-ray AVC LPCM 2.0 (thanks violator99)]
Контейнер: MKV
Видео: MPEG-4 AVC Video, 1920x1080 at 23.976 fps, ~34935 kbps
Аудио#1: Russian: 48 kHz, AC3, 2.0 ch, 160 kbps |Многоголосый закадровый, ТК "Культура"|
Аудио#2: English: 48 kHz, LPCM, 2.0 ch, 2034 kbps
Аудио#3: English: 48 kHz, AC3, 2.0 ch, 192 kbps |Commentary by Davies and Coulter|
Формат субтитров: softsub (SRT)
Сэмпл

MediaInfo

General
Unique ID : 253215520194560545592945915532517565543 (0xBE7F8907A086243C912664DC511BE467)
Complete name : The Long Day Closes.1992.CC.BDRemux. rutracker.mkv
Format : Matroska
Format version : Version 2
File size : 22.3 GiB
Duration : 1h 25mn
Overall bit rate mode : Variable
Overall bit rate : 37.4 Mbps
Movie name : Release for RuTracker
Encoded date : UTC 2014-01-31 13:33:10
Writing application : mkvmerge v5.0.1 ('Es ist Sommer') built on Nov 6 2011 16:23:40
Writing library : libebml v1.2.2 + libmatroska v1.3.0
Video
ID : 1
Format : AVC
Format/Info : Advanced Video Codec
Format profile : High@L4.1
Format settings, CABAC : Yes
Format settings, ReFrames : 4 frames
Codec ID : V_MPEG4/ISO/AVC
Duration : 1h 25mn
Bit rate mode : Variable
Maximum bit rate : 37.0 Mbps
Width : 1 920 pixels
Height : 1 080 pixels
Display aspect ratio : 16:9
Frame rate : 23.976 fps
Color space : YUV
Chroma subsampling : 4:2:0
Bit depth : 8 bits
Scan type : Progressive
Title : The Long Day Closes 1992 1080p Blu-ray AVC LPCM 2.0-v99
Language : English
Default : Yes
Forced : No
Audio #1
ID : 2
Format : AC-3
Format/Info : Audio Coding 3
Mode extension : CM (complete main)
Codec ID : A_AC3
Duration : 1h 25mn
Bit rate mode : Constant
Bit rate : 160 Kbps
Channel(s) : 2 channels
Channel positions : Front: L R
Sampling rate : 48.0 KHz
Bit depth : 16 bits
Compression mode : Lossy
Stream size : 97.9 MiB (0%)
Language : Russian
Default : Yes
Forced : No
Audio #2
ID : 3
Format : PCM
Codec ID : A_PCM/INT/LIT
Duration : 1h 25mn
Bit rate mode : Constant
Channel(s) : 2 channels
Sampling rate : 48.0 KHz
Bit depth : 24 bits
Language : English
Default : No
Forced : No
Audio #3
ID : 4
Format : AC-3
Format/Info : Audio Coding 3
Mode extension : CM (complete main)
Codec ID : A_AC3
Duration : 1h 25mn
Bit rate mode : Constant
Bit rate : 192 Kbps
Channel(s) : 2 channels
Channel positions : Front: L R
Sampling rate : 48.0 KHz
Bit depth : 16 bits
Compression mode : Lossy
Stream size : 117 MiB (1%)
Title : Commentary
Language : English
Default : No
Forced : No
Text #1
ID : 5
Format : UTF-8
Codec ID : S_TEXT/UTF8
Codec ID/Info : UTF-8 Plain Text
Title : перевод Akuli
Language : Russian
Default : No
Forced : No
Text #2
ID : 6
Format : UTF-8
Codec ID : S_TEXT/UTF8
Codec ID/Info : UTF-8 Plain Text
Language : English
Default : No
Forced : No
Menu
00:00:00.000 : :Opening credits
00:06:25.301 : :The pictures
00:12:41.010 : :Daydreams
00:15:59.959 : :At the fair
00:22:42.986 : :Christmas
00:30:15.271 : :Second school
00:35:14.028 : :Going out
00:39:46.092 : :Lice
00:48:45.922 : :Erosion
00:52:19.386 : :Left out
01:00:58.404 : :A celebration
01:09:09.770 : :Bud's world
01:13:52.094 : :A gradual decay
Дополнительно">

Скриншоты Дополнительно


За русские субтитры спасибо Lesnick.



Показать сообщения:    

Текущее время: 05-Дек 15:34

Часовой пояс: UTC + 3


Вы не можете начинать темы
Вы не можете отвечать на сообщения
Вы не можете редактировать свои сообщения
Вы не можете удалять свои сообщения
Вы не можете голосовать в опросах
Вы не можете прикреплять файлы к сообщениям
Вы не можете скачивать файлы