Жизнь богемы / La vie de bohème (Аки Каурисмяки / Aki Kaurismäki) [1992, Франция, Германия, Швеция, Финляндия, драма, комедия, BDRemux 1080p] [Criterion Collection] MVO + AVO (Алексеев) + Sub (Rus, Eng) + Original Fre


 

[Цитировать]

Жизнь богемы / La vie de bohème
Страна: Франция, Германия, Швеция, Финляндия
Жанр: драма, комедия
Год выпуска: 1992
Продолжительность: 01:43:00
Перевод: Профессиональный (многоголосый закадровый)
Перевод: Авторский (одноголосый закадровый) | Антон Алексеев
Cубтитры: русские, английские-Режиссер: Аки Каурисмяки / Aki Kaurismäki
В ролях: Матти Пеллонпяя, Андре Вилмс, Кари Вяянянен, Эвелин Диди, Кристина Мурильо, Жан-Пьер Лео, Алексис Нитцер, Сильви ван ден Эльзен, Жиль Шарман, Сэмюэл Фуллер
Описание: По одноименному роману Анри Мюрже.
Писатель Марсель Маркс задолжал за три месяца за квартиру. Вернувшись из ресторана со своим новым знакомым по имени Родольфо, художником из Албании, он обнаруживает всю свою мебель выставленной на улицу, а в пустой квартире - нового жильца, композитора по имени Шонар, единственным богатством которого является пианино. Три творческие личности решают жить все вместе под маленькой крышей большого Парижа, чтобы реализовать свои планы. Маркс мечтает издать 21-актную пьесу "Мститель", но отказывается ее сокращать. Шонар работает над музыкальным сочинением под названием "Влияние синего цвета на искусство", а у Родольфо нет денег на краски, чтобы закончить свой шедевр...
IMDb || КиноПоиск-Тип релиза: BDRemux 1080p [La vie de bohème 1992 1080p Blu-ray AVC LPCM 1.0 (thanks violator99)]
Контейнер: MKV
Видео: MPEG-4 AVC Video, 1920x1080 at 23.976 fps, ~34999 kbps
Аудио#1: Russian: 48 kHz, AC3, 2.0 ch, 192 kbps |Многоголосый закадровый|
Аудио#2: Russian: 48 kHz, AC3, 2.0 ch, 112 kbps |Авторский закадровый, А.Алексеев|
Аудио#3: French: 48 kHz, LPCM, 1.0 ch, 1152 kbps
Формат субтитров: softsub (SRT)
Сэмпл

MediaInfo

General
Unique ID : 199371736285217749784909172729382060599 (0x95FD9985C8771CD19975098683AA4237)
Complete name : La vie de boheme.1992.CC.BDremux. rutracker.mkv
Format : Matroska
Format version : Version 2
File size : 26.2 GiB
Duration : 1h 42mn
Overall bit rate mode : Variable
Overall bit rate : 36.4 Mbps
Movie name : Release for RuTracker
Encoded date : UTC 2014-01-26 06:36:17
Writing application : mkvmerge v5.0.1 ('Es ist Sommer') built on Nov 6 2011 16:23:40
Writing library : libebml v1.2.2 + libmatroska v1.3.0
Video
ID : 1
Format : AVC
Format/Info : Advanced Video Codec
Format profile : High@L4.1
Format settings, CABAC : Yes
Format settings, ReFrames : 4 frames
Codec ID : V_MPEG4/ISO/AVC
Duration : 1h 42mn
Bit rate mode : Variable
Maximum bit rate : 37.0 Mbps
Width : 1 920 pixels
Height : 1 080 pixels
Display aspect ratio : 16:9
Frame rate : 23.976 fps
Color space : YUV
Chroma subsampling : 4:2:0
Bit depth : 8 bits
Scan type : Progressive
Title : La vie de bohème 1992 1080p Blu-ray AVC LPCM 1.0-v99
Language : English
Default : Yes
Forced : No
Audio #1
ID : 2
Format : AC-3
Format/Info : Audio Coding 3
Mode extension : CM (complete main)
Codec ID : A_AC3
Duration : 1h 42mn
Bit rate mode : Constant
Bit rate : 192 Kbps
Channel(s) : 2 channels
Channel positions : Front: L R
Sampling rate : 48.0 KHz
Bit depth : 16 bits
Compression mode : Lossy
Stream size : 141 MiB (1%)
Title : mvo
Language : Russian
Default : Yes
Forced : No
Audio #2
ID : 3
Format : AC-3
Format/Info : Audio Coding 3
Mode extension : CM (complete main)
Codec ID : A_AC3
Duration : 1h 42mn
Bit rate mode : Constant
Bit rate : 112 Kbps
Channel(s) : 2 channels
Channel positions : Front: L R
Sampling rate : 48.0 KHz
Bit depth : 16 bits
Compression mode : Lossy
Stream size : 82.5 MiB (0%)
Title : avo
Language : Russian
Default : No
Forced : No
Audio #3
ID : 4
Format : PCM
Codec ID : A_PCM/INT/LIT
Duration : 1h 42mn
Bit rate mode : Constant
Sampling rate : 48.0 KHz
Bit depth : 24 bits
Language : French
Default : No
Forced : No
Text #1
ID : 5
Format : UTF-8
Codec ID : S_TEXT/UTF8
Codec ID/Info : UTF-8 Plain Text
Language : Russian
Default : No
Forced : No
Text #2
ID : 6
Format : UTF-8
Codec ID : S_TEXT/UTF8
Codec ID/Info : UTF-8 Plain Text
Language : English
Default : No
Forced : No
Menu
00:00:00.000 : :1
00:02:40.451 : :2
00:04:30.979 : :3
00:08:39.101 : :4
00:11:10.670 : :5
00:14:04.176 : :6
00:17:54.823 : :7
00:23:02.381 : :8
00:28:22.117 : :9
00:33:53.906 : :10
00:38:15.001 : :11
00:42:14.949 : :12
00:47:54.454 : :13
00:53:43.803 : :14
00:57:35.577 : :15
01:00:41.387 : :16
01:02:52.560 : :17
01:08:40.908 : :18
01:11:03.467 : :19
01:12:56.372 : :20
01:18:36.253 : :21
01:23:34.300 : :22
01:24:43.995 : :23
01:26:15.170 : :24
01:33:09.375 : :25
01:40:15.592 : :26
01:42:59.548 : :27

Скриншоты




Показать сообщения:    

Текущее время: 09-Дек 12:39

Часовой пояс: UTC + 3


Вы не можете начинать темы
Вы не можете отвечать на сообщения
Вы не можете редактировать свои сообщения
Вы не можете удалять свои сообщения
Вы не можете голосовать в опросах
Вы не можете прикреплять файлы к сообщениям
Вы не можете скачивать файлы