Прощение крови / The Forgiveness of Blood / Falja e gjakut (Джошуа Марстон / Joshua Marston) [2011, США, Албания, Дания, Италия, драма, BDRip 720p] VO (Чадов) + Original (Alb) + Sub Rus, Eng


 

[Цитировать]

Прощение крови / Falja e gjakut / The Forgiveness of Blood Страна: США, Албания, Дания, Италия
Жанр: драма
Год выпуска: 2011
Продолжительность: 01:49:39
Перевод: Одноголосый закадровый М. Чадов
Cубтитры: английские, русские (Dr. pro)
Оригинальная аудиодорожка: албанский
Режиссер: Джошуа Марстон / Joshua Marston
В ролях: Тристан Халиладж, Рефет Абази, Зана Хасай, Эрджон Мани, Луан Джаха, Чун Лайчи, Ветон Османи, Зефир «Беп» Бушати, Селман Локай, Кол Зефи
Описание:
Албания. Ник учится в выпускном классе школы. Сразу по окончании школы он планирует начать собственное дело — открыть интернет-кафе. Его сестре Рудине пятнадцать и она мечтает поступить после школы в институт. Однако планы на будущее пришлось корректировать, когда их семья вступила в конфликт с семьей соседей из-за земли, а их отец, обвиняемый в убийстве, был вынужден бежать в горы. По древнему албанскому закону, пока отец семьи скрывается от правосудия, ни один взрослый мужчина из их семьи не имеет права выходить из дома. В этой ситуации единственным человеком, который может спасти семью оказывается Рудина.
- -Тип релиза: BDRip 720p (рип от riverhd@EbP)

Контейнер: MKV
Видео: AVC (x264), 1280x690 (1,85:1) at 23,976 fps, 12500 Кbps, 0.590 bpp
Аудио 1: DTS; 1536 Kbps; CBR; 6 ch; 48 khz | VO - М. Чадов |
Аудио 2: DTS; 1536 Kbps; CBR; 6 ch; 48 khz | Албанский |
Формат субтитров: softsub (SRT)

Скриншоты || x264 Info || MediaInfo || NotesMediaInfo

Общее
Уникальный идентификатор                 : 190640739690105455306893724822528157591 (0x8F6C1227BE37B9D2BD4F87218AA56797)
Полное имя                               : Прощение крови.2011.L1.720p.BluRay.x264-EbP.mkv
Формат                                   : Matroska
Версия формата                           : Version 4 / Version 2
Размер файла                             : 11,9 Гбайт
Продолжительность                        : 1 ч. 49 м.
Общий поток                              : 15,5 Мбит/сек
Название фильма                          : The Forgiveness of Blood [720p] [2011] VO
Дата кодирования                         : UTC 2013-12-15 07:20:22
Программа кодирования                    : mkvmerge v6.6.0 ('The Edge Of The In Between') built on Dec  1 2013 17:55:00
Библиотека кодирования                   : libebml v1.3.0 + libmatroska v1.4.1
Видео
Идентификатор                            : 1
Формат                                   : AVC
Формат/Информация                        : Advanced Video Codec
Профиль формата                          : High@L4.1
Параметр CABAC формата                   : Да
Параметр ReFrames формата                : 9 кадров
Идентификатор кодека                     : V_MPEG4/ISO/AVC
Продолжительность                        : 1 ч. 49 м.
Битрейт                                  : 12,5 Мбит/сек
Ширина                                   : 1280 пикселей
Высота                                   : 690 пикселей
Соотношение сторон                       : 1,85:1
Режим частоты кадров                     : Постоянный
Частота кадров                           : 23,976 кадра/сек
Цветовое пространство                    : YUV
Субдискретизация насыщенности            : 4:2:0
Битовая глубина                          : 8 бит
Тип развёртки                            : Прогрессивная
Бит/(Пиксели*Кадры)                      : 0.590
Размер потока                            : 9,34 Гбайт (79%)
Заголовок                                : profile.php?mode=viewprofile&u=22488948
Библиотека кодирования                   : x264 core 128 r2216 198a7ea
Настройки программы                      : cabac=1 / ref=9 / deblock=1:-3:-3 / analyse=0x3:0x113 / me=tesa / subme=11 / psy=1 / psy_rd=1.05:0.00 / mixed_ref=1 / me_range=16 / chroma_me=1 / trellis=2 / 8x8dct=1 / cqm=0 / deadzone=21,11 / fast_pskip=0 / chroma_qp_offset=-2 / threads=12 / lookahead_threads=2 / sliced_threads=0 / nr=0 / decimate=0 / interlaced=0 / bluray_compat=0 / constrained_intra=0 / bframes=8 / b_pyramid=2 / b_adapt=2 / b_bias=0 / direct=3 / weightb=1 / open_gop=0 / weightp=2 / keyint=250 / keyint_min=23 / scenecut=40 / intra_refresh=0 / rc=2pass / mbtree=0 / bitrate=12500 / ratetol=1.0 / qcomp=0.60 / qpmin=0 / qpmax=69 / qpstep=4 / cplxblur=20.0 / qblur=0.5 / ip_ratio=1.40 / pb_ratio=1.30 / aq=1:0.60
Язык                                     : Albanian
Default                                  : Да
Forced                                   : Нет
Аудио #1
Идентификатор                            : 2
Формат                                   : DTS
Формат/Информация                        : Digital Theater Systems
Режим                                    : 16
Параметр Endianness формата              : Big
Идентификатор кодека                     : A_DTS
Продолжительность                        : 1 ч. 49 м.
Вид битрейта                             : Постоянный
Битрейт                                  : 1510 Кбит/сек
Каналы                                   : 6 каналов
Расположение каналов                     : Front: L C R, Side: L R, LFE
Частота                                  : 48,0 КГц
Битовая глубина                          : 24 бит
Метод сжатия                             : С потерями
Размер потока                            : 1,16 Гбайт (10%)
Заголовок                                : VO [М. Чадов]
Язык                                     : Russian
Default                                  : Да
Forced                                   : Нет
Аудио #2
Идентификатор                            : 3
Формат                                   : DTS
Формат/Информация                        : Digital Theater Systems
Режим                                    : 16
Параметр Endianness формата              : Big
Идентификатор кодека                     : A_DTS
Продолжительность                        : 1 ч. 49 м.
Вид битрейта                             : Постоянный
Битрейт                                  : 1509 Кбит/сек
Каналы                                   : 6 каналов
Расположение каналов                     : Front: L C R, Side: L R, LFE
Частота                                  : 48,0 КГц
Битовая глубина                          : 24 бит
Метод сжатия                             : С потерями
Размер потока                            : 1,16 Гбайт (10%)
Язык                                     : Albanian
Default                                  : Нет
Forced                                   : Нет
Текст #1
Идентификатор                            : 4
Формат                                   : UTF-8
Идентификатор кодека                     : S_TEXT/UTF8
Идентификатор кодека/Информация          : UTF-8 Plain Text
Язык                                     : English
Default                                  : Нет
Forced                                   : Нет
Текст #2
Идентификатор                            : 5
Формат                                   : UTF-8
Идентификатор кодека                     : S_TEXT/UTF8
Идентификатор кодека/Информация          : UTF-8 Plain Text
Заголовок                                : [Dr. pro]
Язык                                     : Russian
Default                                  : Нет
Forced                                   : Нет
Меню
00:00:00.000                             : en:00:00:00.000
00:05:31.706                             : en:00:05:31.706
00:14:52.600                             : en:00:14:52.600
00:20:49.957                             : en:00:20:49.957
00:27:06.792                             : en:00:27:06.792
00:32:39.624                             : en:00:32:39.624
00:36:35.235                             : en:00:36:35.235
00:40:00.231                             : en:00:40:00.231
00:47:36.020                             : en:00:47:36.020
00:54:22.384                             : en:00:54:22.384
00:59:49.503                             : en:00:59:49.503
01:03:54.789                             : en:01:03:54.789
01:08:10.837                             : en:01:08:10.837
01:11:47.887                             : en:01:11:47.887
01:19:35.646                             : en:01:19:35.646
01:26:49.788                             : en:01:26:49.788
01:33:51.793                             : en:01:33:51.793
01:39:50.735                             : en:01:39:50.735

Source vs Encode



x264 Infox264 [info]: frame I:883 Avg QP:14.68 size:168070
x264 [info]: frame P:28740 Avg QP:16.57 size: 91930
x264 [info]: frame B:128119 Avg QP:18.76 size: 58416
x264 [info]: consecutive B-frames: 1.0% 0.6% 5.3% 4.2% 11.2% 64.9% 4.5% 2.7% 5.6% Цитата: Озвучка Михаила Чадова, доступна благодаря спонсору
За аудио дорожку №1, огромная благодарность лорди74



Показать сообщения:    

Текущее время: 09-Дек 01:07

Часовой пояс: UTC + 3


Вы не можете начинать темы
Вы не можете отвечать на сообщения
Вы не можете редактировать свои сообщения
Вы не можете удалять свои сообщения
Вы не можете голосовать в опросах
Вы не можете прикреплять файлы к сообщениям
Вы не можете скачивать файлы